Белый лотос / The White Lotus (Сезон 1 , Серия 1-3 из 6) (Майк Уайт) [2021,Драма, комедия,WEB-DLRip - HEVC - 1080p] [ LostFilm + Кравец-Рекордз +AlexFilm +HDRezka Studio+ NewStudio+TVShows+Ukr+Eng]+[Subs Rus , ENG]

DL-List and Torrent activity [Update ]
Size:  7.95 GB   |    Registered:  45 seconds   |    Completed:  6 times

Seeder not seen: Never

 
     
 
 
 
Author Message

Nikolai.Baranov ®

Gender: Unknown

Longevity: 5 years 7 months

Posts: 29

Наличие запрета:


Карма  0 


: 2 ()

За активность в разделе сериалов (1) За активность в разделе сериалов (1)

Post 14-Jul-2021 20:04

[Quote]

-- -- Белый лотос / The White Lotus - (Сезон 1- , Серия 1-3 из 6) -- --Год выпуска: 2021
Выпущено: США, Rip Cord Productions
Жанр: Драма, комедия
Продолжительность: 00:55:00
Сезон: 1
Серия: 1-3
Количество серий в сезоне: 6 --Озвучка #1: Профессиональный многоголосый -Русский - - LostFilm- Русский
Озвучка #2: Профессиональный многоголосый -Русский - - Кравец-Рекордз - Русский
Озвучка #3: Профессиональный многоголосый -Русский - - AlexFilm - Русский
Озвучка #4: Профессиональный многоголосый -Русский - - HDRezka Studio - Русский
Озвучка #5: Профессиональный многоголосый -Русский - - NewStudio - Русский
Озвучка #6: Профессиональный многоголосый -Русский - - TVShows - Русский
Озвучка # 7: Профессиональный многоголосый -Русский - - Украинский
Озвучка # 8: Профессиональный многоголосый -Английский - Оригинал--

Субтитры :


Субтитры (UTF-8):вшитые
#1 - Русские - Russian (включены по умолчанию)
#2 - Русские - Russian- (Forced)
#3 - Русские - Russian
#4- Английские - English (SDH)


Внешние:
#1 - Русские - Russian
#2 - Русские - Russian- (Forced)
#3 - Русские - Russian
#4- Английские - English (SDH)
--Релиз Без Рекламы --MDB 7.5 --Режиссеры: Майк Уайт --В ролях: Эмбер Абара, Мюррэй Бартлетт, Конни Бриттон, Дженнифер Кулидж, Александра Даддарио, Фред Хехингер, Джейк Лэси, Бриттани О'Грэйди, Наташа Ротуэлл, Молли Шеннон -- Социальная сатира на гавайском курорте с Александрой Даддарио («Почему женщины убивают») и Сидни Суини («Эйфория»). «Белый Лотос» придумал Майк Уайт, американский автор с узнаваемым почерком (сериал «Просветленная» с Лорой Дерн и фильм «Статус Брэда» с Беном Стиллером — его рук дело). В новом проекте сценариста речь пойдет о курорте на Гавайях, где в течение недели посетители дорогого местного отеля попытаются расслабиться и забыть обо всех невзгодах. Но вряд ли им это светит: вскоре паутина интриг окутает райское место. Кроме того, между гостями и работниками отеля начнут происходить странные вещи..-- --Качество : WEB-DLRip - HEVC 10bit - 1080p
Формат: MKV
Видео кодек: H265
Видео: 3907 Кбит/сек,1920х1080 , (19,6),в 25.000 кадр/сек, HEVC (Main10@L5.2@Main)--Аудио Кодек:Аудио Кодек:AC3
Аудио #1 : MVO LostFilm @DD5.1 AC3, 320 Kbps, 48.0 KHz, 6 ch - LostFilm - Русский
Аудио #2 : MVO Кравец-Рекордз @DD5.1 AC3, 320 Kbps, 48.0 KHz, 6 ch - Кравец-Рекордз - Русский
Аудио #3 : MVO AlexFilm @DD5.1 AC3, 384 Kbps, 48.0 KHz, 6 ch - AlexFilm - Русский
Аудио #4 : MVO HDRezka Studio @DD5.1 AC3, 320 Kbps, 48.0 KHz, 6 ch - HDRezka Studio - Русский
Аудио #5 : MVO NewStudio @DD5.1 AC3, 320 Kbps, 48.0 KHz, 6 ch - NewStudio - Русский
Аудио #6 : MVO TVShows @DD5.1 AC3, 320 Kbps, 48.0 KHz, 6 ch - TVShows - Русский
Аудио #7: Ukr MVO @DD5.1 AC3, 320 Kbps, 48.0 KHz, 6 ch - - Украинский
Аудио #8: English @DD5.1 E-AC3, 640 Kbps, 48.0 KHz, 6 ch - - English - Оригинал-- --

Доп. информация:

Звуковая дорожка сделана путем наложения чистого голоса озвучивателей на центральный канал оригинальной дорожки. Качество идентично звуковой дорожке.
--

Список эпизодов сезона


1 сезон 1 серия - Новоприбывшие - Arrivals
1 сезон 2 серия - Новый день - New Day
1 сезон 3 серия - Загадочные обезьяны - Mysterious Monkeys
--

MediaInfo

Общее
Уникальный идентификатор : 83382812175141197390566294484786090429 (0x3EBAF20B13E3597E6DC0876DFC6811BD)
Полное имя : F:\Белый лотос - The White Lotus\2021_The.White.Lotus.S01_HEVC- 10Bit_DD5.1_N.B_HD_1080_3xRus_Eng\The.White.Lotus.S01.E01_HEVC- 10Bit_DD5.1_N.B_HD_1080_3xRus_Eng.mkv
Формат : Matroska
Версия формата : Version 4
Размер файла : 2,67 Гбайт
Продолжительность : 55 м. 56 с.
Общий поток : 6 831 Кбит/сек
Название фильма : 2021 The White Lotus S01E01 @ Nikolai.Baranov & PIRATIYA
Дата кодирования : UTC 2021-07-28 08:45:00
Программа кодирования : mkvmerge v59.0.0 ('Shining Star') 64-bit
Библиотека кодирования : libebml v1.4.2 + libmatroska v1.6.4
Видео
Идентификатор : 1
Формат : HEVC
Формат/Информация : High Efficiency Video Coding
Профиль формата : Main 10@L5.2@Main
Идентификатор кодека : V_MPEGH/ISO/HEVC
Продолжительность : 54 м. 10 с.
Битрейт : 3 967 Кбит/сек
Ширина : 1 920 пикселей
Высота : 1 080 пикселей
Соотношение сторон : 16:9
Режим частоты кадров : Постоянный
Частота кадров : 25,000 кадров/сек
Цветовое пространство : YUV
Субдискретизация насыщенности : 4:2:0
Битовая глубина : 10 бит
Бит/(Пиксели*Кадры) : 0.077
Размер потока : 1,50 Гбайт (56%)
Заголовок : The.White.Lotus.S01.E01_HEVC- 10Bit_DD5.1_N.B_HD_1080_3xRus_Eng
Язык : Russian
Default : Да
Forced : Нет
Цветовой диапазон : Full
Основные цвета : BT.709
Характеристики трансфера : BT.709
Коэффициенты матрицы : BT.709
Аудио #1
Идентификатор : 2
Формат : AC-3
Формат/Информация : Audio Coding 3
Коммерческое название : Dolby Digital
Идентификатор кодека : A_AC3
Продолжительность : 54 м. 10 с.
Вид битрейта : Постоянный
Битрейт : 384 Кбит/сек
Каналы : 6 каналов
Channel layout : L R C LFE Ls Rs
Частота : 48,0 КГц
Частота кадров : 31,250 кадров/сек (1536 SPF)
Метод сжатия : С потерями
Размер потока : 149 Мбайт (5%)
Заголовок : MVO Кравец-Рекордз @DD5.1 AC3, 320 Kbps, 48.0 KHz, 6 ch
Язык : Russian
Service kind : Complete Main
Default : Да
Forced : Нет
Аудио #2
Идентификатор : 3
Формат : AC-3
Формат/Информация : Audio Coding 3
Коммерческое название : Dolby Digital
Идентификатор кодека : A_AC3
Продолжительность : 54 м. 10 с.
Вид битрейта : Постоянный
Битрейт : 384 Кбит/сек
Каналы : 6 каналов
Channel layout : L R C LFE Ls Rs
Частота : 48,0 КГц
Частота кадров : 31,250 кадров/сек (1536 SPF)
Метод сжатия : С потерями
Размер потока : 149 Мбайт (5%)
Заголовок : MVO LostFilm @DD5.1 AC3, 320 Kbps, 48.0 KHz, 6 ch
Язык : Russian
Service kind : Complete Main
Default : Да
Forced : Нет
Аудио #3
Идентификатор : 4
Формат : AC-3
Формат/Информация : Audio Coding 3
Коммерческое название : Dolby Digital
Идентификатор кодека : A_AC3
Продолжительность : 54 м. 10 с.
Вид битрейта : Постоянный
Битрейт : 384 Кбит/сек
Каналы : 6 каналов
Channel layout : L R C LFE Ls Rs
Частота : 48,0 КГц
Частота кадров : 31,250 кадров/сек (1536 SPF)
Метод сжатия : С потерями
Размер потока : 149 Мбайт (5%)
Заголовок : MVO AlexFilm @DD5.1 AC3, 320 Kbps, 48.0 KHz, 6 ch
Язык : Russian
Service kind : Complete Main
Default : Да
Forced : Нет
Аудио #4
Идентификатор : 5
Формат : E-AC-3
Формат/Информация : Enhanced AC-3
Коммерческое название : Dolby Digital Plus
Идентификатор кодека : A_EAC3
Продолжительность : 54 м. 10 с.
Вид битрейта : Постоянный
Битрейт : 640 Кбит/сек
Каналы : 6 каналов
Channel layout : L R C LFE Ls Rs
Частота : 48,0 КГц
Частота кадров : 31,250 кадров/сек (1536 SPF)
Метод сжатия : С потерями
Размер потока : 248 Мбайт (9%)
Заголовок : English @DD5.1 E-AC3, 640 Kbps, 48.0 KHz, 6 ch
Язык : English
Service kind : Complete Main
Default : Нет
Forced : Нет
Аудио #5
Идентификатор : 6
Формат : AC-3
Формат/Информация : Audio Coding 3
Коммерческое название : Dolby Digital
Идентификатор кодека : A_AC3
Продолжительность : 55 м. 56 с.
Вид битрейта : Постоянный
Битрейт : 320 Кбит/сек
Каналы : 6 каналов
Channel layout : L R C LFE Ls Rs
Частота : 48,0 КГц
Частота кадров : 31,250 кадров/сек (1536 SPF)
Метод сжатия : С потерями
Размер потока : 128 Мбайт (5%)
Заголовок : MVO HDRezka Studio @DD5.1 AC3, 320 Kbps, 48.0 KHz, 6 ch
Язык : Russian
Service kind : Complete Main
Default : Да
Forced : Нет
Аудио #6
Идентификатор : 7
Формат : AC-3
Формат/Информация : Audio Coding 3
Коммерческое название : Dolby Digital
Идентификатор кодека : A_AC3
Продолжительность : 54 м. 10 с.
Вид битрейта : Постоянный
Битрейт : 320 Кбит/сек
Каналы : 6 каналов
Channel layout : L R C LFE Ls Rs
Частота : 48,0 КГц
Частота кадров : 31,250 кадров/сек (1536 SPF)
Метод сжатия : С потерями
Размер потока : 124 Мбайт (5%)
Заголовок : MVO TVShows @DD5.1 AC3, 320 Kbps, 48.0 KHz, 6 ch
Язык : Russian
Service kind : Complete Main
Default : Да
Forced : Нет
Аудио #7
Идентификатор : 8
Формат : AC-3
Формат/Информация : Audio Coding 3
Коммерческое название : Dolby Digital
Идентификатор кодека : A_AC3
Продолжительность : 54 м. 10 с.
Вид битрейта : Постоянный
Битрейт : 320 Кбит/сек
Каналы : 6 каналов
Channel layout : L R C LFE Ls Rs
Частота : 48,0 КГц
Частота кадров : 31,250 кадров/сек (1536 SPF)
Метод сжатия : С потерями
Размер потока : 124 Мбайт (5%)
Заголовок : MVO NewStudio @DD5.1 AC3, 320 Kbps, 48.0 KHz, 6 ch
Язык : Russian
Service kind : Complete Main
Default : Да
Forced : Нет
Аудио #8
Идентификатор : 9
Формат : AC-3
Формат/Информация : Audio Coding 3
Коммерческое название : Dolby Digital
Идентификатор кодека : A_AC3
Продолжительность : 54 м. 10 с.
Вид битрейта : Постоянный
Битрейт : 320 Кбит/сек
Каналы : 6 каналов
Channel layout : L R C LFE Ls Rs
Частота : 48,0 КГц
Частота кадров : 31,250 кадров/сек (1536 SPF)
Метод сжатия : С потерями
Размер потока : 124 Мбайт (5%)
Заголовок : Ukr MVO @DD5.1 AC3, 320 Kbps, 48.0 KHz, 6 ch
Язык : Ukrainian
Service kind : Complete Main
Default : Да
Forced : Нет
Текст #1
Идентификатор : 10
Формат : UTF-8
Идентификатор кодека : S_TEXT/UTF8
Идентификатор кодека/Информация : UTF-8 Plain Text
Продолжительность : 44 м. 57 с.
Битрейт : 3 бит/сек
Count of elements : 18
Размер потока : 1,08 Кбайт (0%)
Заголовок : Новоприбывшие-Russian-Forced
Язык : Russian
Default : Да
Forced : Нет
Текст #2
Идентификатор : 11
Формат : UTF-8
Идентификатор кодека : S_TEXT/UTF8
Идентификатор кодека/Информация : UTF-8 Plain Text
Продолжительность : 50 м. 32 с.
Битрейт : 109 бит/сек
Count of elements : 632
Размер потока : 40,7 Кбайт (0%)
Заголовок : Новоприбывшие-Russian
Язык : Russian
Default : Да
Forced : Нет
Текст #3
Идентификатор : 12
Формат : UTF-8
Идентификатор кодека : S_TEXT/UTF8
Идентификатор кодека/Информация : UTF-8 Plain Text
Продолжительность : 53 м. 39 с.
Битрейт : 81 бит/сек
Count of elements : 957
Размер потока : 32,1 Кбайт (0%)
Заголовок : Arrivals-English - SDH
Язык : English
Default : Да
Forced : Нет
Меню
00:00:00.000 : ru:Глава 01 / ru:Глава 01 / ru:Глава 01 / ru:Глава 01 / ru:Глава 01 / ru:Глава 01 / ru:Глава 01 / ru:Глава 01 / ru:Глава 01 / ru:Глава 01 / ru:Глава 01 / ru:Глава 01
--

Скриншоты

----
1 Сезон
--Внимание! Раздача пополняется по мере выхода новых серий!--

Внимание! Раздача ведётся путём добавления новых серий!

Раздача ведётся путём добавления новых серий; при каждом добавлении создётся новый торрент.
Чтобы начать докачку новой серии, пользователям необходимо сделать следующее:
1. остановить скачивание,
2. удалить старый торрент у себя из клиента (старые серии удалять не надо),
3. скачать новый торрент и запустить его у себя в клиенте вместо старого, при этом указать клиенту путь в старую папку, куда и должно происходить скачивание новых серий.
Ваш клиент при этом должен произвести хеширование (проверку) старой папки (если не производит сам - помогите ему сделать это), и будет докачивать только те серии которых у вас ещё нет. Старые серии при этом не удаляются, а продолжают раздаваться!
Eсли вы уже удалили старые серии, то предотвратить повторную закачку старых серий можно, отжав галочку в соответсвующих местах при запуске нового торрента. По возможности, желательно не удалять старые серии как можно дольше, чтобы релизёр не столько продолжал раздавать старые серии, а смог сконцентрироваться на новых.
Совет для тех, кто не хочет ждать перехеширования:
Создайте ещё одну папку рядом с папкой сериала (рядом, а не в ней!!!). Каждую новую серию после удачной загрузки копируйте в новую папку так чтобы ваша основная папка всегда была пуста. Когда ваш новый торрент предложит вам закачать все файлы, выберете только последнюю. Для сидирования же укажите адрес новой папки.
Как закачать отдельный файл из торрента или докачать ранее пропущенные файлы торрента!

Как закачать отдельный файл

1. Открыть торрент
2. Снять галки с тех файлов торрента, которые мы не хотим закачивать. Оставляем только на нужных нам файлах (файле).
3. Нажать О.К.
В клиенте utorrent
Инструкция
1) Открыть торрент

2) Снять галки с тех файлов торрента, которые мы не хотим закачивать:
* либо вручную, снимая с каждого файла галку( скрин №1)
* либо, нажав кнопку "Снять метки (Select None)", сняв сразу со всех файлов(скрин №2)
№1

№2

Оставляем только на нужных нам файлах (файле).

3)Нажать О.К
-- -- ----Внимание!! ! 28 . 07. 2021. РАЗДАЧА ОБНОВЛЕНА. ДОБАВЛЕНА-3-СЕРИЯ . . ОБНОВИТЕ ТОРЕНТ ФАЙЛ. ПРИЯТНОГО ПРОСМОТРА . Поблагодарить:
ЯД: 410017546713876
--Релиз от: Nikolai.Baranov & PIRATIYA -- -- -- --Время раздачи : 24/7---
Сейчас вы смотрите Белый лотос / The White Lotus (Сезон 1 , Серия 1-3 из 6) (Майк Уайт) [2021,Драма, комедия,WEB-DLRip - HEVC - 1080p] [ LostFilm + Кравец-Рекордз +AlexFilm +HDRezka Studio+ NewStudio+TVShows+Ukr+Eng]+[Subs Rus , ENG],не забываем оставлять комментарии!
Белый лотос / The White Lotus (Сезон 1 , Серия 1-3 из 6) (Майк Уайт) [2021,Драма, комедия,WEB-DLRip - HEVC - 1080p] [ LostFilm + Кравец-Рекордз +AlexFilm +HDRezka Studio+ NewStudio+TVShows+Ukr+Eng]+[Subs Rus , ENG] [mytorrnado.ru].t20910.torrent
Torrent: INFO - HASH не доступен.

Download

22 KB

Status: * not checked
Completed: 6 times
Тип торрента:    
Size: 7.95 GB
Поделиться:
FAQ:
 
Как качать?
Как качать?
X
Скачайте торрент и откройте его в своем клиенте
uTorrent

скачать программу,
дождитесь окончания загрузки.
Если торрент закрыт? Инстркуция.
* Как смотреть?
Как смотреть?
X

Для работы Magic Player
Вам необходимо установить
Ace Stream P2P Multimedia Plug-in

Установить

Для работы Magic Player Вам необходимо включить
Ace Stream P2P Multimedia Plug-in

Инструкция
terms.php
Похожие темы




Запрещено категорически:
» Развязывать разборки (для этого есть ЛС)
» Оставлять комментарии, не относящиеся к содержанию материала.
» Добавлять спам, рекламу флуд..
К спаму относится:
1. Реклама любого направления.
2. Ссылки на сторонние ресурсы рекламного характера.
3. Ссылки на ресурсы порнографического направления.
4. Сылки на блоги и им подбным контeнтам.
» Запрещено оскорбление администрации, модераторов и пользователей.
» Часто писать с вкл. Caps Lock
»За нарушение правил бан или отключение без объяснений.
Уважайте чужой труд!

Правила могут дополняться и изменяться. С уважением Администрация.
[Profile] [PM]
Display posts    
Reply to topic

Current time is: 28-Jul 19:19

All times are UTC + 5



You cannot post new topics in this forum
You cannot reply to topics in this forum
You cannot edit your posts in this forum
You cannot delete your posts in this forum
You cannot vote in polls in this forum
You cannot attach files in this forum
You can download files in this forum










!ATTENTION!
The site does not give electronic versions of products, and is engaged only in a collecting and cataloguing of the references sent and published at a forum by our readers. If you are the legal owner of any submitted material and do not wish that the reference to it was in our catalogue, contact us and we shall immediately remove her. Files for an exchange on tracker are given by users of a site, and the administration does not bear the responsibility for their maintenance. The request to not fill in the files protected by copyrights, and also files of the illegal maintenance!