(Classical, Concerto) Л. Коган / L. Kogan, Paris Conservatoire orchestra, cond. A. Vandernoot - Бетховен, П.И. Чайковский - Концерты для скрипки / Beethoven, P.I. Tchaikovsky - Violin concertos, opp. 61 and 35 - 2021, MP3 (tracks) 320 kbps

DL-List and Torrent activity [Update ]
Size:  181 MB   |    Registered:  7 days   |    Completed:  2 times

Seeder not seen: Never

 
     
 
 
 
Author Message

MAGNAT ®

Gender: Male

Longevity: 5 years 6 months

Posts: 2696

Наличие запрета:


Карма  2 

Location: Москва



: 7 ()

Активный релизер  (1000 релизов) (1) Активный релизер  (200 релизов) (1) Активный релизер  (50 релизов) (1) Активный релизер  (150 релизов) (1)
Активный релизер (500 релизов) (1) Активный релизер  (100 релизов) (1)

Post 18-Jul-2021 13:12

[Quote]

Л. ван Бетховен, П.И. Чайковский
Концерты для скрипки с оркестром соч. 61 и 35
(Леонид Коган, Оркестр Парижской консерватории,
дирижер Андре Вандернот)
L. van Beethoven, P.I. Tchaikovsky
Violin concertos Op. 61 and 35
(Leonid Kogan, Paris Conservatoire orchestra,
conductor André Vandernoot)

Жанр: Classical / Concerto
Страна-производитель диска: Россия
Год издания диска: 2021
Издатель (лейбл): МКМ
Номер по каталогу: МКМ 323
Дата записи: 1955–1958
Формат записи: ADD
Аудиокодек: MP3
Тип рипа: tracks
Битрейт аудио: 320 kbps
Продолжительность: 01:16:22
Источник: CD
Наличие сканов: да

Треклист

Ludwig van BeethovenViolin concerto in D major, op. 61 (43:29):
01. I. Allegro ma non troppo (24:10)
02. II. Larghetto (09:49)
03. III. Rondo. Allegro (09:28)
Пётр Ильич ЧайковскийКонцерт для скрипки с оркестром ре мажор, соч. 35 (32:53):
04. I. Allegro moderato (17:36)
05. II. Canzonetta: Andante (06:26)
06. III. Finale: Allegro vivacissimo (08:51)
***
Записи / Recorded 1955–1958

Исполнители

Леонид Коган (скрипка)
Оркестр Парижской консерватории, дирижер Андре Вандернот
Leonid Kogan (violin)
Paris Conservatoire orchestra, conductor André Vandernoot

О качестве материала

Конверсия AIMP_3 собственного рипа. Лог создания исходного рипа

Exact Audio Copy V1.5 from 20. February 2020
EAC extraction logfile from 30. April 2021, 14:25
L. Kogan, Paris Conservatoire orchestra, conductor A. Vandernoot / L. Kogan - L. van Beethoven, P.I. Tchaikovsky - Violin concertos
Used drive : HL-DT-STDVDRAM GH22NS40 Adapter: 1 ID: 0
Read mode : Secure
Utilize accurate stream : Yes
Defeat audio cache : Yes
Make use of C2 pointers : No
Read offset correction : 667
Overread into Lead-In and Lead-Out : No
Fill up missing offset samples with silence : Yes
Delete leading and trailing silent blocks : No
Null samples used in CRC calculations : Yes
Used interface : Native Win32 interface for Win NT & 2000
Used output format : User Defined Encoder
Selected bitrate : 1024 kBit/s
Quality : High
Add ID3 tag : No
Command line compressor : C:\Program Files (x86)\Exact Audio Copy\Flac\flac.exe
Additional command line options : -V -8 -T "Date=%year%" -T "Genre=%genre%" %source%
TOC of the extracted CD
Track | Start | Length | Start sector | End sector
---------------------------------------------------------
1 | 0:00.00 | 24:10.69 | 0 | 108818
2 | 24:10.69 | 9:49.49 | 108819 | 153042
3 | 34:00.43 | 9:28.45 | 153043 | 195687
4 | 43:29.13 | 17:36.05 | 195688 | 274892
5 | 61:05.18 | 6:26.05 | 274893 | 303847
6 | 67:31.23 | 8:51.35 | 303848 | 343707
Range status and errors
Selected range
Filename I:\5. EAC\CD.wav
Peak level 76.3 %
Extraction speed 2.1 X
Range quality 100.0 %
Test CRC B2C10F34
Copy CRC B2C10F34
Copy OK
No errors occurred
AccurateRip summary
Track 1 cannot be verified as accurate (confidence 9) [4F18272C], AccurateRip returned [7DE5A117] (AR v2)
Track 2 cannot be verified as accurate (confidence 9) [805B1838], AccurateRip returned [4931D802] (AR v2)
Track 3 cannot be verified as accurate (confidence 9) [6F8066C4], AccurateRip returned [80A66F29] (AR v2)
Track 4 cannot be verified as accurate (confidence 9) [1648398B], AccurateRip returned [B098879A] (AR v2)
Track 5 cannot be verified as accurate (confidence 9) [F42C5A74], AccurateRip returned [405588E1] (AR v2)
Track 6 cannot be verified as accurate (confidence 9) [C17FA974], AccurateRip returned [1C075136] (AR v2)
No tracks could be verified as accurate
You may have a different pressing from the one(s) in the database
End of status report
---- CUETools DB Plugin V2.1.6
[CTDB TOCID: Sv2T4ftI9PPq7jt8nq0JqnR1DoM-] found
Submit result: Sv2T4ftI9PPq7jt8nq0JqnR1DoM- has been confirmed
Track | CTDB Status
1 | (12/12) Accurately ripped
2 | (12/12) Accurately ripped
3 | (12/12) Accurately ripped
4 | (12/12) Accurately ripped
5 | (12/12) Accurately ripped
6 | (12/12) Accurately ripped
==== Log checksum 53DF5060541249444C3C7949513EEFFC93FF99DD3820A4DDF2D44876A03B7955 ====

Скриншоты спектра частот исходного рипа

Spectrogram auCDtect TM
Spectrum Tau Analyzer
Frequency Tau Analyzer
(Classical, Concerto) Л. Коган / L. Kogan, Paris Conservatoire orchestra, cond. A. Vandernoot - Бетховен, П.И. Чайковский - Концерты для скрипки / Beethoven, P.I. Tchaikovsky - Violin concertos, opp. 61 and 35 - 2021, MP3 (tracks) 320 kbps [mytorrnado.ru].t21043.torrent 
Torrent: Registered [ 2021-07-18 13:12 ] · EE957DFEA477E334C902F02F7D7C087C779880EA Google it!

Download .torrent

16 KB

Status: checked
Completed: 2 times
Тип торрента:    
Size: 181 MB
Поделиться:
FAQ:
 
Как качать?
Как качать?
X
Скачайте торрент и откройте его в своем клиенте
uTorrent

скачать программу,
дождитесь окончания загрузки.
Если торрент закрыт? Инстркуция.
* Как смотреть?
Как смотреть?
X

Для работы Magic Player
Вам необходимо установить
Ace Stream P2P Multimedia Plug-in

Установить

Для работы Magic Player Вам необходимо включить
Ace Stream P2P Multimedia Plug-in

Инструкция
terms.php
Похожие темы




Запрещено категорически:
» Развязывать разборки (для этого есть ЛС)
» Оставлять комментарии, не относящиеся к содержанию материала.
» Добавлять спам, рекламу флуд..
К спаму относится:
1. Реклама любого направления.
2. Ссылки на сторонние ресурсы рекламного характера.
3. Ссылки на ресурсы порнографического направления.
4. Сылки на блоги и им подбным контeнтам.
» Запрещено оскорбление администрации, модераторов и пользователей.
» Часто писать с вкл. Caps Lock
»За нарушение правил бан или отключение без объяснений.
Уважайте чужой труд!

Правила могут дополняться и изменяться. С уважением Администрация.
[Profile] [PM]
Display posts    
Reply to topic

Current time is: 25-Jul 23:13

All times are UTC + 5



You cannot post new topics in this forum
You cannot reply to topics in this forum
You cannot edit your posts in this forum
You cannot delete your posts in this forum
You cannot vote in polls in this forum
You can attach files in this forum
You can download files in this forum










!ATTENTION!
The site does not give electronic versions of products, and is engaged only in a collecting and cataloguing of the references sent and published at a forum by our readers. If you are the legal owner of any submitted material and do not wish that the reference to it was in our catalogue, contact us and we shall immediately remove her. Files for an exchange on tracker are given by users of a site, and the administration does not bear the responsibility for their maintenance. The request to not fill in the files protected by copyrights, and also files of the illegal maintenance!