(Classical, Concerto) Vivaldi collection. 4 CDs. 2000, MP3 (tracks) 320 kbps

DL-List and Torrent activity [Update ]
Size:  525 MB   |    Registered:  8 days   |    Completed:  2 times

Seeder not seen: Never

 
     
 
 
 
Author Message

MAGNAT ®

Gender: Male

Longevity: 5 years 6 months

Posts: 2696

Наличие запрета:


Карма  2 

Location: Москва



: 7 ()

Активный релизер  (100 релизов) (1) Активный релизер  (50 релизов) (1) Активный релизер  (1000 релизов) (1) Активный релизер  (150 релизов) (1)
Активный релизер  (200 релизов) (1) Активный релизер (500 релизов) (1)

Post 18-Jul-2021 13:23

[Quote]

Vivaldi collection. 4 CDs
A. Vivaldi, A. Marcello, G. Tartini
Le quattro stagioni.
Concerti e Sonate per archi e più strumenti

(Davide Amadio, Paolo Ciociola, Nicola Favaro, Giuliano Fontanella,
Interpreti Veneziani, I Virtuosi dell'Ensemble di Venezia)

Concertos and Sonatas for strings and more instruments.
The four seasons

Жанр: Classical / Concerto
Страна-производитель диска: Italy
Год издания диска: 2000
Издатель (лейбл): Classic Art
Номер по каталогу: CA4001B
Дата записи: 1997
Аудиокодек: MP3
Тип рипа: tracks
Битрейт аудио: 320 kbps
Продолжительность: 03:40:55
Источник: CD
Наличие сканов: да
Благодарность kasatkal
за помощь в оформлении раздачи

CD 1 - «The Four Seasons» - 00:54:18

Номер по каталогу: MGCA4015_1
Треклист:Antonio Vivaldi
«Le quattro stagioni» (39:59):
Concerto No. 1 in E major «La Primavera», RV 269 (09:33):
01. I. Allegro (03:16)
02. II. Largo (02:30)
03. III. Allegro (Danza pastorale) (03:46)
Concerto No. 2 in G minor «L'Estate», RV 315 (09:40):
04. I. Allegro non molto (04:36)
05. II. Adagio – Presto (02:15)
06. III. Presto (Tempo impetuoso d'estate) (02:48)
Concerto No. 3 in F major «L'Autunno», RV 293 (11:43):
07. I. Allegro (Ballo e canto de'villanelli) (05:25)
08. II. Adagio molto (Ubriachi dormienti) (03:06)
09. III. Allegro (La caccia) (03:11)
Concerto No. 4 in F minor «L'Inverno», RV 297 (09:01):
10. I. Allegro non molto (03:22)
11. II. Largo (02:30)
12. III. Allegro (Camminar sopra il ghiaccio) (03:09)
13. Dal concerto RV 538 per violoncello (03:52)
Alessandro Marcello
Concerto per oboe, archi, cembalo in Re minore (10:26):
14. I. Andante spiccato (03:01)
15. II. Adagio (04:42)
16. III. Presto (02:41)

Исполнители

Violin – Giuliano Fontanella [1–6], Paolo Ciociola [7–12], Davide Amadio [13], Nicola Favaro [14–16]
Interpreti Veneziani

О качестве материала

Конверсия AIMP_3 собственного рипа. Лог создания исходного рипа

Exact Audio Copy V1.5 from 20. February 2020
Отчёт EAC об извлечении, выполненном 16. января 2021, 8:09
Interpreti Veneziani & G. Fontanella, P. Ciociola, D. Amadio, N. Favaro / Vivaldi Collection. CD 1: Le Quattro Stagioni / The Four Seasons
Дисковод: HL-DT-STDVDRAM GH22NS40 Adapter: 1 ID: 0
Режим чтения : Достоверность
Использование точного потока : Да
Отключение кэша аудио : Да
Использование указателей C2 : Нет
Коррекция смещения при чтении : 667
Способность читать области Lead-in и Lead-out : Нет
Заполнение пропущенных сэмплов тишиной : Да
Удаление блоков с тишиной в начале и конце : Нет
При вычислениях CRC использовались нулевые сэмплы : Да
Интерфейс : Встроенный Win32-интерфейс для Win NT/2000
Выходной формат : Пользовательский кодировщик
Выбранный битрейт : 1024 kBit/s
Качество : Высокий
Добавление ID3-тега : Нет
Утилита сжатия : C:\Program Files (x86)\Exact Audio Copy\Flac\flac.exe
Дополнительные параметры : -V -8 -T "Date=%year%" -T "Genre=%genre%" %source%
TOC извлечённого CD
Трек | Старт | Длительность | Начальный сектор | Конечный сектор
---------------------------------------------------------------------
1 | 0:00.00 | 3:16.67 | 0 | 14766
2 | 3:16.67 | 2:30.50 | 14767 | 26066
3 | 5:47.42 | 3:46.04 | 26067 | 43020
4 | 9:33.46 | 4:36.36 | 43021 | 63756
5 | 14:10.07 | 2:15.37 | 63757 | 73918
6 | 16:25.44 | 2:48.13 | 73919 | 86531
7 | 19:13.57 | 5:25.50 | 86532 | 110956
8 | 24:39.32 | 3:06.37 | 110957 | 124943
9 | 27:45.69 | 3:11.44 | 124944 | 139312
10 | 30:57.38 | 3:22.35 | 139313 | 154497
11 | 34:19.73 | 2:30.07 | 154498 | 165754
12 | 36:50.05 | 3:09.16 | 165755 | 179945
13 | 39:59.21 | 3:52.54 | 179946 | 197399
14 | 43:52.00 | 3:01.72 | 197400 | 211046
15 | 46:53.72 | 4:42.64 | 211047 | 232260
16 | 51:36.61 | 2:41.72 | 232261 | 244407
Характеристики диапазона извлечения и сообщения об ошибках
Выбранный диапазон
Имя файла I:\5. EAC\CD 1.wav
Пиковый уровень 61.7 %
Скорость извлечения 1.9 X
Качество диапазона 100.0 %
CRC теста 710CFD39
CRC копии 710CFD39
Копирование... OK
Ошибок не произошло
AccurateRip: сводка
Трек 1 точность не определена (достоверность 2) [2667EAF0], AccurateRip вернул [4D74B458] (AR v2)
Трек 2 точность не определена (достоверность 2) [8DC41E36], AccurateRip вернул [D32919A7] (AR v2)
Трек 3 точность не определена (достоверность 2) [4D5FEAEE], AccurateRip вернул [CE2BA45E] (AR v2)
Трек 4 точность не определена (достоверность 2) [C1C6DAF9], AccurateRip вернул [A20084F1] (AR v2)
Трек 5 точность не определена (достоверность 2) [461B5668], AccurateRip вернул [05D1CBE9] (AR v2)
Трек 6 точность не определена (достоверность 2) [CB3696E9], AccurateRip вернул [0B5A6C5F] (AR v2)
Трек 7 точность не определена (достоверность 2) [CA872D04], AccurateRip вернул [4C3CA71D] (AR v2)
Трек 8 точность не определена (достоверность 2) [6E3863A9], AccurateRip вернул [343565D0] (AR v2)
Трек 9 точность не определена (достоверность 2) [315233E6], AccurateRip вернул [C924FD1A] (AR v2)
Трек 10 точность не определена (достоверность 2) [CA8E4FE0], AccurateRip вернул [D56DB0D9] (AR v2)
Трек 11 точность не определена (достоверность 2) [9AEC9E83], AccurateRip вернул [31F15919] (AR v2)
Трек 12 точность не определена (достоверность 2) [47317C1F], AccurateRip вернул [1B56FCAF] (AR v2)
Трек 13 точность не определена (достоверность 2) [1580EEEB], AccurateRip вернул [D5133F26] (AR v2)
Трек 14 точность не определена (достоверность 2) [C17A5B5D], AccurateRip вернул [A87539BF] (AR v2)
Трек 15 точность не определена (достоверность 2) [C34BBCFA], AccurateRip вернул [290445AA] (AR v2)
Трек 16 точность не определена (достоверность 2) [2B98D1BC], AccurateRip вернул [37A61ECC] (AR v2)
Ни один трек не прошёл проверки на точность
В вашей базе может быть иной вариант штамповки диска
Конец отчёта
---- CUETools DB Plugin V2.1.6
[CTDB TOCID: SMcpeSoiiX3ev3Zr4geNtLTBSf8-] found
Submit result: already submitted
Track | CTDB Status
1 | (40/40) Accurately ripped
2 | (40/40) Accurately ripped
3 | (39/40) Accurately ripped
4 | (40/40) Accurately ripped
5 | (40/40) Accurately ripped
6 | (40/40) Accurately ripped
7 | (39/40) Accurately ripped
8 | (40/40) Accurately ripped
9 | (39/40) Accurately ripped
10 | (40/40) Accurately ripped
11 | (40/40) Accurately ripped
12 | (40/40) Accurately ripped
13 | (39/40) Accurately ripped
14 | (40/40) Accurately ripped
15 | (40/40) Accurately ripped
16 | (40/40) Accurately ripped
==== Контрольная сумма отчёта CA161D4F439FD40263DEE5E390258B250C45B20DAA1D972E23EBD55B69C1A1C1 ====

Скриншот спектра частот исходного рипа

Spectrogram auCDtect TM

CD 2 - «Concerti per Archi» - 00:50:36

Номер по каталогу: MGCA4001_2
Треклист:Antonio Vivaldi
Concerto in Do maggiore RV 113 (06:56):
01. I. Allegro (01:55)
02. II. Grave (02:06)
03. III. Allegro (02:53)
Concerto in Mi minore RV 134 (06:37):
04. I. Allegro moderato (02:32)
05. II. Andante (02:27)
06. III. Allegro (01:38)
Concerto in Si bem. maggiore RV 166 (05:20):
07. I. Allegro (01:43)
08. II. Adagio (01:45)
09. III. Allegro (01:50)
Concerto in La minore RV 161 (05:03):
10. I. Allegro (01:40)
11. II. Largo (02:07)
12. III. Allegro (01:16)
Concerto in Sol maggiore RV 151 «Alla Rustica» (04:05):
13. I. Presto (01:23)
14. II. Adagio (01:03)
15. III. Allegro (01:39)
Concerto in La maggiore RV 160 (05:19):
16. I. Allegro (01:45)
17. II. Andante (01:56)
18. III. Allegro (01:37)
Concerto in Fa maggiore RV 138 (05:41):
19. I. Allegro (02:37)
20. II. Largo (01:03)
21. III. Allegro (02:00)
Concerto in Sol minore RV 156 (11:31):
22. I. Adagio (03:16)
23. II. Allegro (01:35)
24. III. Largo (04:02)
25. IV. Allegro (02:37)

Исполнители

I Virtuosi dell'Ensemble di Venezia

О качестве материала

Конверсия AIMP_3 собственного рипа. Лог создания исходного рипа

Exact Audio Copy V1.5 from 20. February 2020
Отчёт EAC об извлечении, выполненном 15. января 2021, 20:24
I Virtuosi dell'Ensemble di Venezia / Vivaldi Collection. CD 2: Concerti per Archi
Дисковод: HL-DT-STDVDRAM GH22NS40 Adapter: 1 ID: 0
Режим чтения : Достоверность
Использование точного потока : Да
Отключение кэша аудио : Да
Использование указателей C2 : Нет
Коррекция смещения при чтении : 667
Способность читать области Lead-in и Lead-out : Нет
Заполнение пропущенных сэмплов тишиной : Да
Удаление блоков с тишиной в начале и конце : Нет
При вычислениях CRC использовались нулевые сэмплы : Да
Интерфейс : Встроенный Win32-интерфейс для Win NT/2000
Выходной формат : Пользовательский кодировщик
Выбранный битрейт : 1024 kBit/s
Качество : Высокий
Добавление ID3-тега : Нет
Утилита сжатия : C:\Program Files (x86)\Exact Audio Copy\Flac\flac.exe
Дополнительные параметры : -V -8 -T "Date=%year%" -T "Genre=%genre%" %source%
TOC извлечённого CD
Трек | Старт | Длительность | Начальный сектор | Конечный сектор
---------------------------------------------------------------------
1 | 0:00.00 | 1:55.39 | 0 | 8663
2 | 1:55.39 | 2:06.67 | 8664 | 18180
3 | 4:02.31 | 2:53.49 | 18181 | 31204
4 | 6:56.05 | 2:32.61 | 31205 | 42665
5 | 9:28.66 | 2:27.00 | 42666 | 53690
6 | 11:55.66 | 1:38.06 | 53691 | 61046
7 | 13:33.72 | 1:43.74 | 61047 | 68845
8 | 15:17.71 | 1:45.42 | 68846 | 76762
9 | 17:03.38 | 1:50.48 | 76763 | 85060
10 | 18:54.11 | 1:40.25 | 85061 | 92585
11 | 20:34.36 | 2:07.35 | 92586 | 102145
12 | 22:41.71 | 1:16.10 | 102146 | 107855
13 | 23:58.06 | 1:23.17 | 107856 | 114097
14 | 25:21.23 | 1:03.03 | 114098 | 118825
15 | 26:24.26 | 1:39.49 | 118826 | 126299
16 | 28:04.00 | 1:45.01 | 126300 | 134175
17 | 29:49.01 | 1:56.38 | 134176 | 142913
18 | 31:45.39 | 1:37.43 | 142914 | 150231
19 | 33:23.07 | 2:37.50 | 150232 | 162056
20 | 36:00.57 | 1:03.14 | 162057 | 166795
21 | 37:03.71 | 2:00.39 | 166796 | 175834
22 | 39:04.35 | 3:16.30 | 175835 | 190564
23 | 42:20.65 | 1:35.47 | 190565 | 197736
24 | 43:56.37 | 4:02.52 | 197737 | 215938
25 | 47:59.14 | 2:37.01 | 215939 | 227714
Характеристики диапазона извлечения и сообщения об ошибках
Выбранный диапазон
Имя файла I:\5. EAC\CD 2.wav
Пиковый уровень 38.7 %
Скорость извлечения 1.8 X
Качество диапазона 100.0 %
CRC теста C38BC06E
CRC копии C38BC06E
Копирование... OK
Ошибок не произошло
AccurateRip: сводка
Трек 1 : извлечено точно (достоверность 2) [4F404A12] (AR v2)
Трек 2 : извлечено точно (достоверность 2) [28188FE9] (AR v2)
Трек 3 : извлечено точно (достоверность 2) [E532149A] (AR v2)
Трек 4 : извлечено точно (достоверность 2) [45A8C1D8] (AR v2)
Трек 5 : извлечено точно (достоверность 2) [3EDDE294] (AR v2)
Трек 6 : извлечено точно (достоверность 2) [B983ECC4] (AR v2)
Трек 7 : извлечено точно (достоверность 2) [5BE2F585] (AR v2)
Трек 8 : извлечено точно (достоверность 2) [3D5C2E7D] (AR v2)
Трек 9 : извлечено точно (достоверность 2) [14EDACD8] (AR v2)
Трек 10 : извлечено точно (достоверность 2) [CFD76D9D] (AR v2)
Трек 11 : извлечено точно (достоверность 2) [3690CCFE] (AR v2)
Трек 12 : извлечено точно (достоверность 2) [9EEE358E] (AR v2)
Трек 13 : извлечено точно (достоверность 2) [B4FB1CE6] (AR v2)
Трек 14 : извлечено точно (достоверность 2) [2BDBF131] (AR v2)
Трек 15 : извлечено точно (достоверность 2) [40FD86D3] (AR v2)
Трек 16 : извлечено точно (достоверность 2) [806722AF] (AR v2)
Трек 17 : извлечено точно (достоверность 2) [BC2EB96A] (AR v2)
Трек 18 : извлечено точно (достоверность 2) [457ABF06] (AR v2)
Трек 19 : извлечено точно (достоверность 2) [D8EA1B33] (AR v2)
Трек 20 : извлечено точно (достоверность 2) [D8B0BAFA] (AR v2)
Трек 21 : извлечено точно (достоверность 2) [B13DC68B] (AR v2)
Трек 22 : извлечено точно (достоверность 2) [2EEB26FE] (AR v2)
Трек 23 : извлечено точно (достоверность 2) [BAEA0256] (AR v2)
Трек 24 : извлечено точно (достоверность 2) [3ACC68B2] (AR v2)
Трек 25 : извлечено точно (достоверность 2) [20F96E69] (AR v2)
Все треки извлечены точно
Конец отчёта
---- CUETools DB Plugin V2.1.6
[CTDB TOCID: SKKQTbN2UDXkA_olp1l_eoB4BUw-] found
Submit result: SKKQTbN2UDXkA_olp1l_eoB4BUw- has been confirmed
Track | CTDB Status
1 | (32/32) Accurately ripped
2 | (32/32) Accurately ripped
3 | (32/32) Accurately ripped
4 | (32/32) Accurately ripped
5 | (32/32) Accurately ripped
6 | (32/32) Accurately ripped
7 | (32/32) Accurately ripped
8 | (32/32) Accurately ripped
9 | (32/32) Accurately ripped
10 | (32/32) Accurately ripped
11 | (32/32) Accurately ripped
12 | (32/32) Accurately ripped
13 | (32/32) Accurately ripped
14 | (32/32) Accurately ripped
15 | (32/32) Accurately ripped
16 | (32/32) Accurately ripped
17 | (32/32) Accurately ripped
18 | (32/32) Accurately ripped
19 | (32/32) Accurately ripped
20 | (32/32) Accurately ripped
21 | (32/32) Accurately ripped
22 | (32/32) Accurately ripped
23 | (32/32) Accurately ripped
24 | (32/32) Accurately ripped
25 | (32/32) Accurately ripped
==== Контрольная сумма отчёта A86ECF0C50FA166C2B5A9D591F2788044B40490DE981E7273129420A5069311F ====

Скриншот спектра частот исходного рипа

Spectrogram auCDtect TM

CD 3 - «I Suoni della Natura» - 00:48:19

Номер по каталогу: MGCA4001_3
Треклист:Antonio Vivaldi
Concerto RV 428 in Re maggiore «Il cardellino» (09:51):
01. I. Allegro (03:50)
02. II. Cantabile (02:54)
03. III. Allegro (03:06)
Concerto RV 439 in Sol minore «La notte» (09:23):
04. I. Largo (01:43)
05. II. Presto (Fantasmi) Largo (02:18)
06. III. Presto (01:04)
07. IV. Largo (Il sonno) (01:54)
08. V. Allegro (02:23)
Mottetto RV 623 in La maggiore «Canta in prato, ride in monte» (09:36):
09. I. Canta in prato [Aria] (04:37)
10. II. Sacra fulgescit nobis [Recitativo] (01:03)
11. III. Avenae rusticae [Aria] (02:37)
12. IV. Alleluia (01:18)
Concerto RV 433 in Fa maggiore «La tempesta di mare» (06:59):
13. I. Allegro (02:59)
14. II. Largo (01:46)
15. III. Presto (02:13)
Concerto RV 544 in Fa maggiore «Il proteo» o sia «Il mondo al rovescio» (12:28):
16. I. Allegro (04:43)
17. II. Largo (03:33)
18. III. Allegro (04:11)

Исполнители

I Virtuosi dell'Ensemble di Venezia

О качестве материала

Конверсия AIMP_3 собственного рипа. Лог создания исходного рипа

Exact Audio Copy V1.5 from 20. February 2020
Отчёт EAC об извлечении, выполненном 15. января 2021, 22:35
I Virtuosi dell'Ensemble di Venezia / Vivaldi Collection. CD 3: I Suoni della Natura
Дисковод: HL-DT-STDVDRAM GH22NS40 Adapter: 1 ID: 0
Режим чтения : Достоверность
Использование точного потока : Да
Отключение кэша аудио : Да
Использование указателей C2 : Нет
Коррекция смещения при чтении : 667
Способность читать области Lead-in и Lead-out : Нет
Заполнение пропущенных сэмплов тишиной : Да
Удаление блоков с тишиной в начале и конце : Нет
При вычислениях CRC использовались нулевые сэмплы : Да
Интерфейс : Встроенный Win32-интерфейс для Win NT/2000
Выходной формат : Пользовательский кодировщик
Выбранный битрейт : 1024 kBit/s
Качество : Высокий
Добавление ID3-тега : Нет
Утилита сжатия : C:\Program Files (x86)\Exact Audio Copy\Flac\flac.exe
Дополнительные параметры : -V -8 -T "Date=%year%" -T "Genre=%genre%" %source%
TOC извлечённого CD
Трек | Старт | Длительность | Начальный сектор | Конечный сектор
---------------------------------------------------------------------
1 | 0:00.00 | 3:50.27 | 0 | 17276
2 | 3:50.27 | 2:54.27 | 17277 | 30353
3 | 6:44.54 | 3:06.71 | 30354 | 44374
4 | 9:51.50 | 1:43.06 | 44375 | 52105
5 | 11:34.56 | 2:18.23 | 52106 | 62478
6 | 13:53.04 | 1:04.45 | 62479 | 67323
7 | 14:57.49 | 1:54.09 | 67324 | 75882
8 | 16:51.58 | 2:23.09 | 75883 | 86616
9 | 19:14.67 | 4:37.31 | 86617 | 107422
10 | 23:52.23 | 1:03.07 | 107423 | 112154
11 | 24:55.30 | 2:37.38 | 112155 | 123967
12 | 27:32.68 | 1:18.53 | 123968 | 129870
13 | 28:51.46 | 2:59.42 | 129871 | 143337
14 | 31:51.13 | 1:46.22 | 143338 | 151309
15 | 33:37.35 | 2:13.66 | 151310 | 161350
16 | 35:51.26 | 4:43.06 | 161351 | 182581
17 | 40:34.32 | 3:33.28 | 182582 | 198584
18 | 44:07.60 | 4:11.61 | 198585 | 217470
Характеристики диапазона извлечения и сообщения об ошибках
Выбранный диапазон
Имя файла I:\5. EAC\CD 3.wav
Пиковый уровень 100.0 %
Скорость извлечения 1.8 X
Качество диапазона 100.0 %
CRC теста 2C41391D
CRC копии 2C41391D
Копирование... OK
Ошибок не произошло
AccurateRip: сводка
Трек 1 : извлечено точно (достоверность 1) [659BF493] (AR v2)
Трек 2 : извлечено точно (достоверность 1) [70812BDE] (AR v2)
Трек 3 : извлечено точно (достоверность 1) [D3C37D34] (AR v2)
Трек 4 : извлечено точно (достоверность 1) [BE3BFFA5] (AR v2)
Трек 5 : извлечено точно (достоверность 1) [5002928E] (AR v2)
Трек 6 : извлечено точно (достоверность 1) [2BE1FEE9] (AR v2)
Трек 7 : извлечено точно (достоверность 1) [AF2E3EA2] (AR v2)
Трек 8 : извлечено точно (достоверность 1) [CDF10D79] (AR v2)
Трек 9 : извлечено точно (достоверность 1) [CDF66BC2] (AR v2)
Трек 10 : извлечено точно (достоверность 1) [D67D3745] (AR v2)
Трек 11 : извлечено точно (достоверность 1) [B688A0CA] (AR v2)
Трек 12 : извлечено точно (достоверность 1) [34CCDC3C] (AR v2)
Трек 13 : извлечено точно (достоверность 1) [A94F9589] (AR v2)
Трек 14 : извлечено точно (достоверность 1) [154F1C46] (AR v2)
Трек 15 : извлечено точно (достоверность 1) [2684C02D] (AR v2)
Трек 16 : извлечено точно (достоверность 1) [48E40EDF] (AR v2)
Трек 17 : извлечено точно (достоверность 1) [FDF5AA73] (AR v2)
Трек 18 : извлечено точно (достоверность 1) [68FF6D90] (AR v2)
Все треки извлечены точно
Конец отчёта
---- CUETools DB Plugin V2.1.6
[CTDB TOCID: lvaOODPY7VGe7hfclN2r_TqnBDM-] found
Submit result: lvaOODPY7VGe7hfclN2r_TqnBDM- has been confirmed
Track | CTDB Status
1 | (10/10) Accurately ripped
2 | (10/10) Accurately ripped
3 | (10/10) Accurately ripped
4 | (10/10) Accurately ripped
5 | (10/10) Accurately ripped
6 | (10/10) Accurately ripped
7 | (10/10) Accurately ripped
8 | (10/10) Accurately ripped
9 | (10/10) Accurately ripped
10 | (10/10) Accurately ripped
11 | (10/10) Accurately ripped
12 | (10/10) Accurately ripped
13 | (10/10) Accurately ripped
14 | (10/10) Accurately ripped
15 | (10/10) Accurately ripped
16 | (10/10) Accurately ripped
17 | (10/10) Accurately ripped
18 | (10/10) Accurately ripped
==== Контрольная сумма отчёта 8FC20DE2AA34546BF2451471B10303C6317862529F9B024C0BC17FE6EA03850D ====

Скриншот спектра частот исходного рипа

Spectrogram auCDtect TM

CD 4 - «Concerti per più Strumenti» - 01:07:41

Номер по каталогу: MGCA4015_4
Треклист:Antonio Vivaldi
Concerto in Re maggiore RV 93 (11:38):
01. I. Allegro giusto (03:58)
02. II. Largo (05:13)
03. III. Allegro (02:26)
Concerto in Sol minore RV 85 (11:05):
04. I. Andante molto (04:34)
05. II. Larghetto (04:15)
06. III. Allegro (02:15)
Concerto in Do maggiore RV 82 (10:07):
07. I. Allegro non molto (quasi andante) (04:12)
08. II. Larghetto (03:19)
09. III. Allegro (02:35)
Concerto in Sol minore RV 106 (08:46):
10. I. Allegro (03:13)
11. II. Largo (02:49)
12. III. Allegro (02:44)
Giuseppe Tartini
Sonata in La minore B. A1 (09:04):
13. I. Andante cantabile (04:45)
14. II. Allegro assai (04:18)
Sonata in Re maggiore B. D10 (06:55):
15. I. Andante (03:57)
16. II. Allegro (02:57)
Sonata in Re minore B. D2 (10:03):
15. I. Allegro (03:21)
16. II. Largo andante (04:41)
17. III. Presto (02:00)

Исполнители

Orchestra I Virtuosi dell'Ensemble di Venezia

О качестве материала

Конверсия AIMP_3 собственного рипа. Лог создания исходного рипа

Exact Audio Copy V1.5 from 20. February 2020
Отчёт EAC об извлечении, выполненном 16. января 2021, 0:26
Orchestra I Virtuosi dell'Ensemble di Venezia / Vivaldi Collection. CD 4: Concerti per più Strumenti. Sonate per due Violini e Basso Continuo
Дисковод: HL-DT-STDVDRAM GH22NS40 Adapter: 1 ID: 0
Режим чтения : Достоверность
Использование точного потока : Да
Отключение кэша аудио : Да
Использование указателей C2 : Нет
Коррекция смещения при чтении : 667
Способность читать области Lead-in и Lead-out : Нет
Заполнение пропущенных сэмплов тишиной : Да
Удаление блоков с тишиной в начале и конце : Нет
При вычислениях CRC использовались нулевые сэмплы : Да
Интерфейс : Встроенный Win32-интерфейс для Win NT/2000
Выходной формат : Пользовательский кодировщик
Выбранный битрейт : 1024 kBit/s
Качество : Высокий
Добавление ID3-тега : Нет
Утилита сжатия : C:\Program Files (x86)\Exact Audio Copy\Flac\flac.exe
Дополнительные параметры : -V -8 -T "Date=%year%" -T "Genre=%genre%" %source%
TOC извлечённого CD
Трек | Старт | Длительность | Начальный сектор | Конечный сектор
---------------------------------------------------------------------
1 | 0:00.00 | 3:58.26 | 0 | 17875
2 | 3:58.26 | 5:13.61 | 17876 | 41411
3 | 9:12.12 | 2:26.43 | 41412 | 52404
4 | 11:38.55 | 4:34.08 | 52405 | 72962
5 | 16:12.63 | 4:15.29 | 72963 | 92116
6 | 20:28.17 | 2:15.54 | 92117 | 102295
7 | 22:43.71 | 4:12.48 | 102296 | 121243
8 | 26:56.44 | 3:19.41 | 121244 | 136209
9 | 30:16.10 | 2:35.61 | 136210 | 147895
10 | 32:51.71 | 3:13.21 | 147896 | 162391
11 | 36:05.17 | 2:49.22 | 162392 | 175088
12 | 38:54.39 | 2:44.13 | 175089 | 187401
13 | 41:38.52 | 4:45.72 | 187402 | 208848
14 | 46:24.49 | 4:18.08 | 208849 | 228206
15 | 50:42.57 | 3:57.67 | 228207 | 246048
16 | 54:40.49 | 2:57.19 | 246049 | 259342
17 | 57:37.68 | 3:21.62 | 259343 | 274479
18 | 60:59.55 | 4:41.18 | 274480 | 295572
19 | 65:40.73 | 2:00.23 | 295573 | 304595
Характеристики диапазона извлечения и сообщения об ошибках
Выбранный диапазон
Имя файла I:\5. EAC\CD 4.wav
Пиковый уровень 86.5 %
Скорость извлечения 1.9 X
Качество диапазона 100.0 %
CRC теста BC333B58
CRC копии BC333B58
Копирование... OK
Ошибок не произошло
AccurateRip: сводка
Трек 1 : извлечено точно (достоверность 2) [24CB055D] (AR v2)
Трек 2 : извлечено точно (достоверность 2) [4F9E568C] (AR v2)
Трек 3 : извлечено точно (достоверность 2) [829563FF] (AR v2)
Трек 4 : извлечено точно (достоверность 2) [475C86F2] (AR v2)
Трек 5 : извлечено точно (достоверность 2) [69B29F31] (AR v2)
Трек 6 : извлечено точно (достоверность 2) [927EE5EC] (AR v2)
Трек 7 : извлечено точно (достоверность 2) [105B9217] (AR v2)
Трек 8 : извлечено точно (достоверность 2) [7011957F] (AR v2)
Трек 9 : извлечено точно (достоверность 2) [9FA534AE] (AR v2)
Трек 10 : извлечено точно (достоверность 2) [70930701] (AR v2)
Трек 11 : извлечено точно (достоверность 2) [C97378B8] (AR v2)
Трек 12 : извлечено точно (достоверность 2) [D949556C] (AR v2)
Трек 13 : извлечено точно (достоверность 2) [C004883E] (AR v2)
Трек 14 : извлечено точно (достоверность 2) [C1FCD098] (AR v2)
Трек 15 : извлечено точно (достоверность 2) [3FDC0266] (AR v2)
Трек 16 : извлечено точно (достоверность 2) [B772FB79] (AR v2)
Трек 17 : извлечено точно (достоверность 2) [18091E35] (AR v2)
Трек 18 : извлечено точно (достоверность 2) [38AD4BB9] (AR v2)
Трек 19 : извлечено точно (достоверность 2) [5E49F37C] (AR v2)
Все треки извлечены точно
Конец отчёта
---- CUETools DB Plugin V2.1.6
[CTDB TOCID: Ti7rGL2dCkIE23wPpncRUqnQ1Qk-] found
Submit result: Ti7rGL2dCkIE23wPpncRUqnQ1Qk- has been confirmed
Track | CTDB Status
1 | (14/14) Accurately ripped
2 | (14/14) Accurately ripped
3 | (14/14) Accurately ripped
4 | (14/14) Accurately ripped
5 | (14/14) Accurately ripped
6 | (14/14) Accurately ripped
7 | (14/14) Accurately ripped
8 | (14/14) Accurately ripped
9 | (14/14) Accurately ripped
10 | (14/14) Accurately ripped
11 | (14/14) Accurately ripped
12 | (14/14) Accurately ripped
13 | (14/14) Accurately ripped
14 | (14/14) Accurately ripped
15 | (14/14) Accurately ripped
16 | (14/14) Accurately ripped
17 | (12/14) Accurately ripped
18 | (13/14) Accurately ripped
19 | (13/14) Accurately ripped
==== Контрольная сумма отчёта 909EA57CF8A42CB68887AA486B3DD10FC6D88FB44FEBFE3DC608B6093638A450 ====

Скриншот спектра частот исходного рипа

Spectrogram auCDtect TM
(Classical, Concerto) Vivaldi collection. 4 CDs. 2000, MP3 (tracks) 320 kbps [mytorrnado.ru].t21046.torrent 
Torrent: Registered [ 2021-07-18 13:23 ] · AD70DE5B85FD86B00229772C9AEC9C3579519578 Google it!

Download .torrent

18 KB

Status: checked
Completed: 2 times
Тип торрента:    
Size: 525 MB
Поделиться:
FAQ:
 
Как качать?
Как качать?
X
Скачайте торрент и откройте его в своем клиенте
uTorrent

скачать программу,
дождитесь окончания загрузки.
Если торрент закрыт? Инстркуция.
* Как смотреть?
Как смотреть?
X

Для работы Magic Player
Вам необходимо установить
Ace Stream P2P Multimedia Plug-in

Установить

Для работы Magic Player Вам необходимо включить
Ace Stream P2P Multimedia Plug-in

Инструкция
terms.php
Похожие темы




Запрещено категорически:
» Развязывать разборки (для этого есть ЛС)
» Оставлять комментарии, не относящиеся к содержанию материала.
» Добавлять спам, рекламу флуд..
К спаму относится:
1. Реклама любого направления.
2. Ссылки на сторонние ресурсы рекламного характера.
3. Ссылки на ресурсы порнографического направления.
4. Сылки на блоги и им подбным контeнтам.
» Запрещено оскорбление администрации, модераторов и пользователей.
» Часто писать с вкл. Caps Lock
»За нарушение правил бан или отключение без объяснений.
Уважайте чужой труд!

Правила могут дополняться и изменяться. С уважением Администрация.
[Profile] [PM]
Display posts    
Reply to topic

Current time is: 27-Jul 00:33

All times are UTC + 5



You cannot post new topics in this forum
You cannot reply to topics in this forum
You cannot edit your posts in this forum
You cannot delete your posts in this forum
You cannot vote in polls in this forum
You can attach files in this forum
You can download files in this forum










!ATTENTION!
The site does not give electronic versions of products, and is engaged only in a collecting and cataloguing of the references sent and published at a forum by our readers. If you are the legal owner of any submitted material and do not wish that the reference to it was in our catalogue, contact us and we shall immediately remove her. Files for an exchange on tracker are given by users of a site, and the administration does not bear the responsibility for their maintenance. The request to not fill in the files protected by copyrights, and also files of the illegal maintenance!