Телохранитель жены киллера / Hitman's Wife's Bodyguard (Патрик Хьюз / Patrick Hughes) [2021, Великобритания, США, боевик, комедия, HDRip] MVO (AlphaProject) + Original Eng

DL-List and Torrent activity [Update ]
Size:  1.46 GB   |    Registered:  9 days   |    Completed:  2 times
Seeders:  34  [  0 KB/s  ]   Leechers:  25  [  0 KB/s  ]  
 
     
 
 
Author Message

K15 ®

Gender: Male

Longevity: 5 months 25 days

Posts: 529

Наличие запрета:


Карма  10 


: 5 ()

Кандидат (1) Активный релизер  (250 и более релизов) (1) Активный релизер  (200 релизов) (1) Активный релизер  (150 релизов) (1)
Активный релизер  (50 релизов) (1)

Post 18-Jul-2021 19:42

[Quote]

Телохранитель жены киллера / Hitman's Wife's Bodyguard Страна: Великобритания, США
Жанр: боевик, комедия
Год выпуска: 2021
Продолжительность: 01:39:40
Перевод: Любительский (многоголосый закадровый) AlphaProject
Субтитры: нет
Оригинальная аудиодорожка: английский
Режиссер: Патрик Хьюз / Patrick Hughes
В ролях: Райан Рейнольдс, Сэмюэл Л. Джексон, Сальма Хайек, Морган Фримен, Гэри Олдман, Фрэнк Грилло, Антонио Бандерас, Том Хоппер, Ричард Э. Грант, Кэролайн Гудолл
Описание: Жизнь здорово потрепала нервишки Майкла Брайса, так что с карьерой телохранителя он решил завязать. Психотерапевт посоветовал ему отправиться на тихий курорт, вооружившись лишь книжкой и плейлистом расслабляющей музыки. Но и здесь его находит самая безумная в мире парочка: киллер мирового уровня и настоящий магнит неприятностей Дариус Кинкейд и его супруга Соня— буйная дамочка не робкого десятка. Преступный синдикат устроил на них охоту, и Майклу, при всем желании остаться в стороне, придется вернуться к старому ремеслу и снова стать телохранителем. На этот раз — жены киллера!-Видео исходник: The.Hitmans.Wifes.Bodyguard.2021.1080p.HDRip.X264-EVO
Качество видео: HDRip
Формат видео: AVI
Видео: 720x304 (2.35:1), 24.000 fps, XviD ~ 1704 kbps avg, 0.324 bit/pixel
Аудио 1: 48 kHz, AC3 Dolby Digital, 2.0 ch, ~ 192 kbps .Rus
Аудио 2: 48 kHz, AC3 Dolby Digital, 2.0 ch, ~ 192 kbps .Eng-

MediaInfo

General
Complete name : The.Hitmans.Wifes.Bodyguard.2021.HDRip.avi
Format : AVI
Format/Info : Audio Video Interleave
File size : 1.46 GiB
Duration : 1h 39mn
Overall bit rate : 2 102 Kbps
Writing application : VirtualDubMod 1.5.10.3 | www.virtualdub-fr.org || (build 2550/release)
Writing library : VirtualDubMod build 2550/release
Video
ID : 0
Format : MPEG-4 Visual
Format profile : Advanced Simple@L5
Format settings, BVOP : 1
Format settings, QPel : No
Format settings, GMC : No warppoints
Format settings, Matrix : Default (MPEG)
Codec ID : XVID
Codec ID/Hint : XviD
Duration : 1h 39mn
Bit rate : 1 704 Kbps
Width : 720 pixels
Height : 304 pixels
Display aspect ratio : 2.35:1
Frame rate : 24.000 fps
Color space : YUV
Chroma subsampling : 4:2:0
Bit depth : 8 bits
Scan type : Progressive
Compression mode : Lossy
Bits/(Pixel*Frame) : 0.324
Stream size : 1.19 GiB (81%)
Writing library : XviD 73
Audio #1
ID : 1
Format : AC-3
Format/Info : Audio Coding 3
Mode extension : CM (complete main)
Format settings, Endianness : Big
Codec ID : 2000
Duration : 1h 39mn
Bit rate mode : Constant
Bit rate : 192 Kbps
Channel(s) : 2 channels
Channel positions : Front: L R
Sampling rate : 48.0 KHz
Bit depth : 16 bits
Compression mode : Lossy
Stream size : 137 MiB (9%)
Alignment : Split accross interleaves
Interleave, duration : 42 ms (1.00 video frame)
Interleave, preload duration : 500 ms
Audio #2
ID : 2
Format : AC-3
Format/Info : Audio Coding 3
Mode extension : CM (complete main)
Format settings, Endianness : Big
Codec ID : 2000
Duration : 1h 39mn
Bit rate mode : Constant
Bit rate : 192 Kbps
Channel(s) : 2 channels
Channel positions : Front: L R
Sampling rate : 48.0 KHz
Bit depth : 16 bits
Compression mode : Lossy
Stream size : 137 MiB (9%)
Alignment : Split accross interleaves
Interleave, duration : 42 ms (1.00 video frame)
Interleave, preload duration : 500 ms

Скриншот c названием фильма

Сейчас вы смотрите Телохранитель жены киллера / Hitman's Wife's Bodyguard (Патрик Хьюз / Patrick Hughes) [2021, Великобритания, США, боевик, комедия, HDRip] MVO (AlphaProject) + Original Eng,не забываем оставлять комментарии!
Телохранитель жены киллера / Hitman's Wife's Bodyguard (Патрик Хьюз / Patrick Hughes) [2021, Великобритания, США, боевик, комедия, HDRip] MVO (AlphaProject) + Original Eng [mytorrnado.ru].t21084.torrent 
Torrent: Registered [ 2021-07-18 19:42 ] · C9D786F72D1A8527277BDFE1733B3F6E66E81A40 Google it!

Download .torrent

15 KB

Status: T temporary
Completed: 2 times
Тип торрента: Публичный  - Seed: 34;  Leeh: 25    
Size: 1.46 GB
Поделиться:
FAQ:
 
Как качать?
Как качать?
X
Скачайте торрент и откройте его в своем клиенте
uTorrent

скачать программу,
дождитесь окончания загрузки.
Если торрент закрыт? Инстркуция.
* Как смотреть?
Как смотреть?
X

Для работы Magic Player
Вам необходимо установить
Ace Stream P2P Multimedia Plug-in

Установить

Для работы Magic Player Вам необходимо включить
Ace Stream P2P Multimedia Plug-in

Инструкция
terms.php
Похожие темы




Запрещено категорически:
» Развязывать разборки (для этого есть ЛС)
» Оставлять комментарии, не относящиеся к содержанию материала.
» Добавлять спам, рекламу флуд..
К спаму относится:
1. Реклама любого направления.
2. Ссылки на сторонние ресурсы рекламного характера.
3. Ссылки на ресурсы порнографического направления.
4. Сылки на блоги и им подбным контeнтам.
» Запрещено оскорбление администрации, модераторов и пользователей.
» Часто писать с вкл. Caps Lock
»За нарушение правил бан или отключение без объяснений.
Уважайте чужой труд!

Правила могут дополняться и изменяться. С уважением Администрация.
[Profile] [PM]
Display posts    
Reply to topic

Current time is: 28-Jul 18:36

All times are UTC + 5



You cannot post new topics in this forum
You cannot reply to topics in this forum
You cannot edit your posts in this forum
You cannot delete your posts in this forum
You cannot vote in polls in this forum
You cannot attach files in this forum
You can download files in this forum










!ATTENTION!
The site does not give electronic versions of products, and is engaged only in a collecting and cataloguing of the references sent and published at a forum by our readers. If you are the legal owner of any submitted material and do not wish that the reference to it was in our catalogue, contact us and we shall immediately remove her. Files for an exchange on tracker are given by users of a site, and the administration does not bear the responsibility for their maintenance. The request to not fill in the files protected by copyrights, and also files of the illegal maintenance!