Космический джем: Новое поколение / Space Jam: A New Legacy (2021) WEB-DL 720p | D | Line

DL-List and Torrent activity [Update ]
Size:  3.57 GB   |    Registered:  6 days   |    Completed:  3 times
Seeders:  38  [  0 KB/s  ]   Leechers:  40  [  0 KB/s  ]  
 
     
 
 
Author Message

Иваныч ®

Gender: Male

Longevity: 5 years 8 months

Posts: 8208

Наличие запрета:


Карма  175 

Location: Россия,Курган



: 19 ()

За внесенный вклад в развитие сайта (1) Активный релизер  (250 и более релизов) (1) Реализация решений (1) От администрации (1)
Активный релизер  (150 релизов) (1) Техпддержка (1) Помощь (1) Активному релизеру (5000 раздач) (1)
Активный релизер  (1000 релизов) (1) Активный релизер (500 релизов) (1) Активный релизер  (3000 релизов) (1) Дизайн (1)

Post 19-Jul-2021 06:06

[Quote]

Год выпуска: 2021
Жанр: Мультфильм, фэнтези, комедия, приключения, семейный, спорт, полнометражный
Режиссер: Малкольм Д. Ли
В ролях: Леброн Джеймс, Дон Чидл, Седрик Джо, Крис Дэвис, Сонекуа Мартин-Грин, Сейэйр Дж Райт, Харпер Ли Александр, Зоша Рокемор, Стивен Канколе, Джалин Холл
О фильме:
Суперзвезда баскетбола Леброн Джеймс вместе с маленьким сыном попадает в ловушку виртуальной реальности из-за недоброжелательного искусственного интеллекта. Чтобы выбраться на свободу, Леброн вместе с командой мультяшных персонажей должен выстоять на баскетбольной «дуэли» против цифровых двойников великих чемпионов. Продолжение баскетбольной фэнтези-комедии 1996 года.

Страна / студия: США, Warner Bros.Warner Animation Group, Spring, Hill Entertainment
Продолжительность: 01:55:28
Перевод: Дублированный (Line)
В начале и конце фильма, присутствует звуковая реклама спонсора озвучки!
Файл
Формат: Matroska
Качество: WEB-DL 720p
Видео: MPEG-4 AVC, ~3400 Кбит/с, 1280x720
Аудио 1: AC3, 2 ch, 256 Кбит/с - | Русский | - Tnx.KinoPub
Аудио 2: E-AC3 JOC, 6 ch, 768 Кбит/с - | Английский | -
Субтитры: Английские, испанские, португальские

M/I

General
Format : Matroska
Format version : Version 4
File size : 3.57 GiB
Duration : 1 h 55 min
Overall bit rate mode : Variable
Overall bit rate : 4 421 kb/s
Movie name : Space.Jam.a.New.Legacy.2021.720p.WEB-DL
Encoded date : UTC 2021-07-18 21:29:13
Writing application : mkvmerge v59.0.0 ('Shining Star') 64-bit
Writing library : libebml v1.4.2 + libmatroska v1.6.4
Cover : Yes
Attachments : Cover.jpg / Cover 2.jpg
Video
ID : 1
Format : AVC
Format/Info : Advanced Video Codec
Format profile : Main@L3.1
Format settings : CABAC / 4 Ref Frames
Format settings, CABAC : Yes
Format settings, Reference : 4 frames
Codec ID : V_MPEG4/ISO/AVC
Duration : 1 h 55 min
Bit rate mode : Variable
Bit rate : 3 400 kb/s
Maximum bit rate : 5 100 kb/s
Width : 1 280 pixels
Height : 720 pixels
Display aspect ratio : 16:9
Frame rate mode : Constant
Frame rate : 23.976 (24000/1001) FPS
Color space : YUV
Chroma subsampling : 4:2:0
Bit depth : 8 bits
Scan type : Progressive
Bits/(Pixel*Frame) : 0.154
Stream size : 2.74 GiB (77%)
Writing library : x264 core 157 r2965 861cec4
Encoding settings : cabac=1 / ref=4 / deblock=1:0:0 / analyse=0x1:0x111 / me=hex / subme=7 / psy=1 / psy_rd=1.00:0.00 / mixed_ref=1 / me_range=16 / chroma_me=1 / trellis=1 / 8x8dct=0 / cqm=0 / deadzone=21,11 / fast_pskip=1 / chroma_qp_offset=-2 / threads=22 / lookahead_threads=3 / sliced_threads=0 / nr=0 / decimate=1 / interlaced=0 / bluray_compat=0 / constrained_intra=0 / bframes=3 / b_pyramid=2 / b_adapt=1 / b_bias=0 / direct=1 / weightb=1 / open_gop=0 / weightp=2 / keyint=96 / keyint_min=96 / scenecut=40 / intra_refresh=0 / rc_lookahead=40 / rc=2pass / mbtree=1 / bitrate=3400 / ratetol=1.0 / qcomp=0.60 / qpmin=0 / qpmax=69 / qpstep=4 / cplxblur=20.0 / qblur=0.5 / vbv_maxrate=5100 / vbv_bufsize=2550 / nal_hrd=vbr / filler=0 / ip_ratio=1.40 / aq=1:1.00
Language : English
Default : Yes
Forced : No
Color range : Limited
Color primaries : BT.709
Transfer characteristics : BT.709
Matrix coefficients : BT.709
Audio #1
ID : 2
Format : AC-3
Format/Info : Audio Coding 3
Commercial name : Dolby Digital
Codec ID : A_AC3
Duration : 1 h 55 min
Bit rate mode : Constant
Bit rate : 256 kb/s
Channel(s) : 2 channels
Channel layout : L R
Sampling rate : 48.0 kHz
Frame rate : 31.250 FPS (1536 SPF)
Compression mode : Lossy
Stream size : 211 MiB (6%)
Title : [DUB] Line
Language : Russian
Service kind : Complete Main
Default : Yes
Forced : Yes
Audio #2
ID : 3
Format : E-AC-3 JOC
Format/Info : Enhanced AC-3 with Joint Object Coding
Commercial name : Dolby Digital Plus with Dolby Atmos
Codec ID : A_EAC3
Duration : 1 h 55 min
Bit rate mode : Constant
Bit rate : 768 kb/s
Channel(s) : 6 channels
Channel layout : L R C LFE Ls Rs
Sampling rate : 48.0 kHz
Frame rate : 31.250 FPS (1536 SPF)
Compression mode : Lossy
Stream size : 634 MiB (17%)
Language : English
Service kind : Complete Main
Default : Yes
Forced : No
Complexity index : 16
Number of dynamic objects : 15
Bed channel count : 1 channel
Bed channel configuration : LFE
Text #1
ID : 4
Format : UTF-8
Codec ID : S_TEXT/UTF8
Codec ID/Info : UTF-8 Plain Text
Duration : 1 h 55 min
Bit rate : 95 b/s
Count of elements : 2655
Stream size : 80.2 KiB (0%)
Title : English
Language : English
Default : No
Forced : No
Text #2
ID : 5
Format : UTF-8
Codec ID : S_TEXT/UTF8
Codec ID/Info : UTF-8 Plain Text
Duration : 1 h 55 min
Bit rate : 79 b/s
Count of elements : 1994
Stream size : 66.8 KiB (0%)
Title : Latin America Spanish [SDH]
Language : Spanish
Default : No
Forced : No
Text #3
ID : 6
Format : UTF-8
Codec ID : S_TEXT/UTF8
Codec ID/Info : UTF-8 Plain Text
Duration : 1 h 55 min
Bit rate : 65 b/s
Count of elements : 1951
Stream size : 55.2 KiB (0%)
Title : Portuguese Brazilian
Language : Portuguese
Default : No
Forced : No

Скриншоты

Сейчас вы смотрите Космический джем: Новое поколение / Space Jam: A New Legacy (2021) WEB-DL 720p | D | Line,не забываем оставлять комментарии!
Космический джем: Новое поколение / Space Jam: A New Legacy (2021) WEB-DL 720p | D | Line [mytorrnado.ru].t21087.torrent 
Torrent: Registered [ 2021-07-19 06:06 ] · C1FFB1DBC2BDF25470DB419683A180375A8508F7 Google it!

Download .torrent

72 KB

Status: checked
Completed: 3 times
Тип торрента: Публичный  - Seed: 38;  Leeh: 40    
Size: 3.57 GB
Поделиться:
FAQ:
 
Как качать?
Как качать?
X
Скачайте торрент и откройте его в своем клиенте
uTorrent

скачать программу,
дождитесь окончания загрузки.
Если торрент закрыт? Инстркуция.
* Как смотреть?
Как смотреть?
X

Для работы Magic Player
Вам необходимо установить
Ace Stream P2P Multimedia Plug-in

Установить

Для работы Magic Player Вам необходимо включить
Ace Stream P2P Multimedia Plug-in

Инструкция
terms.php
Похожие темы




Запрещено категорически:
» Развязывать разборки (для этого есть ЛС)
» Оставлять комментарии, не относящиеся к содержанию материала.
» Добавлять спам, рекламу флуд..
К спаму относится:
1. Реклама любого направления.
2. Ссылки на сторонние ресурсы рекламного характера.
3. Ссылки на ресурсы порнографического направления.
4. Сылки на блоги и им подбным контeнтам.
» Запрещено оскорбление администрации, модераторов и пользователей.
» Часто писать с вкл. Caps Lock
»За нарушение правил бан или отключение без объяснений.
Уважайте чужой труд!

Правила могут дополняться и изменяться. С уважением Администрация.
[Profile] [PM]
Display posts    
Reply to topic

Current time is: 26-Jul 00:03

All times are UTC + 5



You cannot post new topics in this forum
You cannot reply to topics in this forum
You cannot edit your posts in this forum
You cannot delete your posts in this forum
You cannot vote in polls in this forum
You cannot attach files in this forum
You can download files in this forum










!ATTENTION!
The site does not give electronic versions of products, and is engaged only in a collecting and cataloguing of the references sent and published at a forum by our readers. If you are the legal owner of any submitted material and do not wish that the reference to it was in our catalogue, contact us and we shall immediately remove her. Files for an exchange on tracker are given by users of a site, and the administration does not bear the responsibility for their maintenance. The request to not fill in the files protected by copyrights, and also files of the illegal maintenance!