Планета бурь (1961) DVDRip от New-Team

DL-List and Torrent activity [Update ]
Size:  1.09 GB   |    Registered:  8 days   |    Completed:  1 times
Seeders:  2  [  0 KB/s  ]  
 
     
 
 
 
Author Message

Иваныч ®

Gender: Male

Longevity: 5 years 8 months

Posts: 8213

Наличие запрета:


Карма  175 

Location: Россия,Курган



: 19 ()

Активный релизер  (2000 релизов) (1) Активный релизер  (50 релизов) (1) Активный релизер  (250 и более релизов) (1) Активисту (1)
Техпддержка (1) За внесенный вклад в развитие сайта (1) Дизайн (1) Активный релизер  (100 релизов) (1)
Активный релизер  (200 релизов) (1) От администрации (1) Активный релизер  (3000 релизов) (1) Активный релизер  (150 релизов) (1)

Post 19-Jul-2021 19:39

[Quote]

Страна: СССР
Производство: Ленинградская киностудия научно-популярных фильмов
Жанр: фантастика, приключения
Год выпуска: 1961
Продолжительность: 01:18:33
Перевод: Не требуется
Cубтитры: нет
Оригинальная аудиодорожка: русский
Режиссер: Павел Клушанцев
В ролях:
Владимир Емельянов, Геннадий Вернов, Георгий Жжёнов, Кюнна Игнатова, Юрий Саранцев, Георгий Тейх...
Об актёрах подробней
Описание:
На планету Венера отправляется первая советская космическая экспедиция из трех кораблей. При подходе к Венере один из кораблей гибнет. Экипажи двух других кораблей, среди которых находятся иностранец и робот "железный Джон", благополучно совершают посадку. Две группы движутся по направлению друг к другу. При этом на орбите остается один корабль с космонавтом на борту. Прежде чем герои найдут друг друга и улетят на Землю, их застигнет извержение вулкана, они погрузятся на морское дно, встретят неведомых животных и достойно перенесут все экстремальные ситуации.- -Источник: DVD9 R5
Качество видео: DVDRip
Формат видео: AVI
Видео: 688х512 (4:3), 25 fps, XviD ~ 1525 kbps avg, 0.173 bit/pixel
Аудио: 48 kHz, Dolby Digital AC3 5.1, 448 kbps

MediaInfo

Общее
Полное имя : Planeta.bur.1961.DVDRip_[New-team]_by_AVP_Studio.avi
Формат : AVI
Формат/Информация : Audio Video Interleave
Размер файла : 1,09 Гбайт
Продолжительность : 1 ч. 18 м.
Общий поток : 1983 Кбит/сек
Программа кодирования : VirtualDubMod 1.5.10.3 | www.virtualdub-fr.org || (build 2550/release)
Библиотека кодирования : VirtualDubMod build 2550/release
Видео
Идентификатор : 0
Формат : MPEG-4 Visual
Профиль формата : Advanced Simple@L5
Настройки формата : BVOP1 / Custom Matrix
Параметр BVOP формата : 1
Параметр QPel формата : Нет
Параметр GMC формата : Без точки перехода
Параметр матрицы формата : Выборочная
Идентификатор кодека : XVID
Идентификатор кодека/Подсказка : XviD
Продолжительность : 1 ч. 18 м.
Битрейт : 1525 Кбит/сек
Ширина : 688 пикселей
Высота : 512 пикселей
Соотношение сторон : 4:3
Частота кадров : 25,000 кадров/сек
Цветовое пространство : YUV
Субдискретизация насыщенности : 4:2:0
Битовая глубина : 8 бит
Тип развёртки : Прогрессивная
Метод сжатия : С потерями
Бит/(Пиксели*Кадры) : 0.173
Размер потока : 857 Мбайт (77%)
Библиотека кодирования : XviD 73
Аудио
Идентификатор : 1
Формат : AC-3
Формат/Информация : Audio Coding 3
Коммерческое название : Dolby Digital
Идентификатор кодека : 2000
Продолжительность : 1 ч. 18 м.
Вид битрейта : Постоянный
Битрейт : 448 Кбит/сек
Каналы : 6 каналов
Channel layout : L R C LFE Ls Rs
Частота : 48,0 КГц
Частота кадров : 31,250 кадров/сек (1536 SPF)
Битовая глубина : 16 бит
Метод сжатия : С потерями
Размер потока : 252 Мбайт (23%)
Выравнивание : Разделение по промежуткам
Продолжительность промежутка : 40 мс. (1,00 видеокадр)
Время предзагрузки промежутка : 500 мс

Скриншоты

Сейчас вы смотрите Планета бурь (1961) DVDRip от New-Team,не забываем оставлять комментарии!
Планета бурь (1961) DVDRip от New-Team [mytorrnado.ru].t21098.torrent 
Torrent: Registered [ 2021-07-19 19:39 ] · 745F7D6F173F6438C53C805EB7F990814E4994F4 Google it!

Download .torrent

12 KB

Status: checked
Completed: 1 times
Тип торрента: Публичный  - Seed: 2;    
Size: 1.09 GB
Поделиться:
FAQ:
 
Как качать?
Как качать?
X
Скачайте торрент и откройте его в своем клиенте
uTorrent

скачать программу,
дождитесь окончания загрузки.
Если торрент закрыт? Инстркуция.
* Как смотреть?
Как смотреть?
X

Для работы Magic Player
Вам необходимо установить
Ace Stream P2P Multimedia Plug-in

Установить

Для работы Magic Player Вам необходимо включить
Ace Stream P2P Multimedia Plug-in

Инструкция
terms.php
Похожие темы




Запрещено категорически:
» Развязывать разборки (для этого есть ЛС)
» Оставлять комментарии, не относящиеся к содержанию материала.
» Добавлять спам, рекламу флуд..
К спаму относится:
1. Реклама любого направления.
2. Ссылки на сторонние ресурсы рекламного характера.
3. Ссылки на ресурсы порнографического направления.
4. Сылки на блоги и им подбным контeнтам.
» Запрещено оскорбление администрации, модераторов и пользователей.
» Часто писать с вкл. Caps Lock
»За нарушение правил бан или отключение без объяснений.
Уважайте чужой труд!

Правила могут дополняться и изменяться. С уважением Администрация.
[Profile] [PM]
Display posts    
Reply to topic

Current time is: 28-Jul 17:45

All times are UTC + 5



You cannot post new topics in this forum
You cannot reply to topics in this forum
You cannot edit your posts in this forum
You cannot delete your posts in this forum
You cannot vote in polls in this forum
You cannot attach files in this forum
You can download files in this forum










!ATTENTION!
The site does not give electronic versions of products, and is engaged only in a collecting and cataloguing of the references sent and published at a forum by our readers. If you are the legal owner of any submitted material and do not wish that the reference to it was in our catalogue, contact us and we shall immediately remove her. Files for an exchange on tracker are given by users of a site, and the administration does not bear the responsibility for their maintenance. The request to not fill in the files protected by copyrights, and also files of the illegal maintenance!