Судная ночь навсегда / The Forever Purge (2021) WEBRip-AVC | Pazl Voice

DL-List and Torrent activity [Update ]
Size:  1.55 GB   |    Registered:  5 days   |    Completed:  0 times
Seeders:  71  [  0 KB/s  ]   Leechers:  48  [  0 KB/s  ]  
 
     
 
 
Author Message

Иваныч ®

Gender: Male

Longevity: 5 years 8 months

Posts: 8208

Наличие запрета:


Карма  175 

Location: Россия,Курган



: 19 ()

Активный релизер  (50 релизов) (1) От администрации (1) Активному релизеру (5000 раздач) (1) Активный релизер (500 релизов) (1)
Активный релизер  (1000 релизов) (1) Активный релизер  (250 и более релизов) (1) Помощь (1) За внесенный вклад в развитие сайта (1)
Активный релизер  (200 релизов) (1) Дизайн (1) Активисту (1) Техпддержка (1)

Post 20-Jul-2021 05:58

[Quote]

Год выпуска: 2021
Жанр: Ужасы, боевик, трилле
Режиссер: Эверардо Валерио Гоут
В ролях: Ана де ла Регера, Джош Лукас, Уилл Пэттон, Кэссиди Фриман, Вероника Фалькон, Ливэн Рамбин, Теноч Уэрта, Сьюзи Абромейт, Алехандро Эдда, Энтони Молинари
О фильме:
Этим летом все правила будут нарушены. Группа мародеров решает, что ежегодная Судная ночь не должна заканчиваться с наступлением утра, а может продолжаться бесконечно. Никто больше не будет в безопасности.

Страна / студия: США,Universal Pictures, Perfect World Pictures, Platinum Dunes
Продолжительность: 01:43:28
Перевод: Любительский двухголосый (Pazl Voice)
Субтитры: Английские
Возраст: 18+
Файл
Формат: Matroska
Качество: WEBRip-AVC
Видео: 1024x554 at 23.976 fps, x264@L4.1, ~1694 kbps
Аудио: AC3, 6 ch, ~448 kbps - | Русский | -
Формат субтитров: softsub (SRT)

M/I

x264 [info]: frame I:1119 Avg QP:15.74 size: 43015
x264 [info]: frame P:39068 Avg QP:17.53 size: 16954
x264 [info]: frame B:108668 Avg QP:19.63 size: 5560
General
Format : Matroska
Format version : Version 4
File size : 1.55 GiB
Duration : 1 h 43 min
Overall bit rate : 2 144 kb/s
Movie name : Судная ночь навсегда.(2021).WEBRip-AVC.[-=DoMiNo=-]
Encoded date : UTC 2021-07-19 21:13:49
Writing application : mkvmerge v59.0.0 ('Shining Star') 64-bit
Writing library : libebml v1.4.2 + libmatroska v1.6.4
Cover : Yes
Attachments : Cover.jpg / Cover 2.jpg
Video
ID : 1
Format : AVC
Format/Info : Advanced Video Codec
Format profile : High@L4.1
Format settings : CABAC / 10 Ref Frames
Format settings, CABAC : Yes
Format settings, Reference : 10 frames
Codec ID : V_MPEG4/ISO/AVC
Duration : 1 h 43 min
Bit rate : 1 694 kb/s
Width : 1 024 pixels
Height : 554 pixels
Display aspect ratio : 1.85:1
Frame rate mode : Constant
Frame rate : 23.976 (24000/1001) FPS
Color space : YUV
Chroma subsampling : 4:2:0
Bit depth : 8 bits
Scan type : Progressive
Bits/(Pixel*Frame) : 0.125
Stream size : 1.22 GiB (79%)
Title : -=DoMiNo=-
Writing library : x264 core 164 r3065+55M 280faca t_mod_New [(8 & 10)-bit@all X86_64]
Encoding settings : cabac=1 / ref=10 / deblock=1:-3:-2 / analyse=0x3:0x133 / me=umh / subme=10 / psy=1 / fade_compensate=0.00 / psy_rd=1.05:0.05 / mixed_ref=1 / me_range=48 / chroma_me=1 / trellis=2 / 8x8dct=1 / cqm=0 / deadzone=21,11 / fast_pskip=0 / chroma_qp_offset=-3 / threads=24 / lookahead_threads=4 / sliced_threads=0 / nr=0 / decimate=1 / interlaced=0 / bluray_compat=0 / constrained_intra=0 / fgo=0 / bframes=10 / b_pyramid=2 / b_adapt=2 / b_bias=0 / direct=1 / weightb=1 / open_gop=0 / weightp=2 / keyint=240 / keyint_min=23 / scenecut=40 / intra_refresh=0 / rc_lookahead=60 / rc=crf / mbtree=0 / crf=19.5000 / qcomp=0.60 / qpmin=0:0:0 / qpmax=69:69:69 / qpstep=4 / vbv_maxrate=50000 / vbv_bufsize=62500 / crf_max=0.0 / nal_hrd=none / filler=0 / ip_ratio=1.30 / pb_ratio=1.20 / aq=3:0.80 / aq-sensitivity=10.00 / aq-factor=1.00:1.00:1.00 / aq2=0 / aq3=0
Language : English
Default : Yes
Forced : No
Color range : Limited
Color primaries : BT.709
Transfer characteristics : BT.709
Matrix coefficients : BT.709
Audio
ID : 2
Format : AC-3
Format/Info : Audio Coding 3
Commercial name : Dolby Digital
Codec ID : A_AC3
Duration : 1 h 43 min
Bit rate mode : Constant
Bit rate : 448 kb/s
Channel(s) : 6 channels
Channel layout : L R C LFE Ls Rs
Sampling rate : 48.0 kHz
Frame rate : 31.250 FPS (1536 SPF)
Compression mode : Lossy
Stream size : 332 MiB (21%)
Title : [DVO] Pazl Voice
Language : Russian
Service kind : Complete Main
Default : Yes
Forced : Yes
Text #1
ID : 3
Format : UTF-8
Codec ID : S_TEXT/UTF8
Codec ID/Info : UTF-8 Plain Text
Duration : 1 h 30 min
Bit rate : 2 b/s
Count of elements : 78
Stream size : 1.78 KiB (0%)
Title : English [Forced]
Language : English
Default : No
Forced : No
Text #2
ID : 4
Format : UTF-8
Codec ID : S_TEXT/UTF8
Codec ID/Info : UTF-8 Plain Text
Duration : 1 h 43 min
Bit rate : 65 b/s
Count of elements : 1770
Stream size : 49.9 KiB (0%)
Title : English [SDH]
Language : English
Default : No
Forced : No
Text #3
ID : 5
Format : UTF-8
Codec ID : S_TEXT/UTF8
Codec ID/Info : UTF-8 Plain Text
Duration : 1 h 37 min
Bit rate : 49 b/s
Count of elements : 1334
Stream size : 35.4 KiB (0%)
Title : English
Language : English
Default : No
Forced : No
Сейчас вы смотрите Судная ночь навсегда / The Forever Purge (2021) WEBRip-AVC | Pazl Voice,не забываем оставлять комментарии!
Судная ночь навсегда / The Forever Purge (2021) WEBRip-AVC | Pazl Voice [mytorrnado.ru].t21102.torrent 
Torrent: Registered [ 2021-07-20 05:58 ] · BFEEBAD0CA9B2C09FA5FC934802654CA63527706 Google it!

Download .torrent

63 KB

Status: checked
Completed: 0 times
Тип торрента: Публичный  - Seed: 71;  Leeh: 48    
Size: 1.55 GB
Поделиться:
FAQ:
 
Как качать?
Как качать?
X
Скачайте торрент и откройте его в своем клиенте
uTorrent

скачать программу,
дождитесь окончания загрузки.
Если торрент закрыт? Инстркуция.
* Как смотреть?
Как смотреть?
X

Для работы Magic Player
Вам необходимо установить
Ace Stream P2P Multimedia Plug-in

Установить

Для работы Magic Player Вам необходимо включить
Ace Stream P2P Multimedia Plug-in

Инструкция
terms.php
Похожие темы




Запрещено категорически:
» Развязывать разборки (для этого есть ЛС)
» Оставлять комментарии, не относящиеся к содержанию материала.
» Добавлять спам, рекламу флуд..
К спаму относится:
1. Реклама любого направления.
2. Ссылки на сторонние ресурсы рекламного характера.
3. Ссылки на ресурсы порнографического направления.
4. Сылки на блоги и им подбным контeнтам.
» Запрещено оскорбление администрации, модераторов и пользователей.
» Часто писать с вкл. Caps Lock
»За нарушение правил бан или отключение без объяснений.
Уважайте чужой труд!

Правила могут дополняться и изменяться. С уважением Администрация.
[Profile] [PM]
Display posts    
Reply to topic

Current time is: 25-Jul 23:30

All times are UTC + 5



You cannot post new topics in this forum
You cannot reply to topics in this forum
You cannot edit your posts in this forum
You cannot delete your posts in this forum
You cannot vote in polls in this forum
You cannot attach files in this forum
You can download files in this forum










!ATTENTION!
The site does not give electronic versions of products, and is engaged only in a collecting and cataloguing of the references sent and published at a forum by our readers. If you are the legal owner of any submitted material and do not wish that the reference to it was in our catalogue, contact us and we shall immediately remove her. Files for an exchange on tracker are given by users of a site, and the administration does not bear the responsibility for their maintenance. The request to not fill in the files protected by copyrights, and also files of the illegal maintenance!