Ага (2021) WEBRip 1080p от MegaPeer

DL-List and Torrent activity [Update ]
Size:  3.04 GB   |    Registered:  4 days   |    Completed:  0 times
Seeders:  95  [  0 KB/s  ]   Leechers:  30  [  0 KB/s  ]  
 
     
 
 
Author Message

Иваныч ®

Gender: Male

Longevity: 5 years 8 months

Posts: 8208

Наличие запрета:


Карма  175 

Location: Россия,Курган



: 19 ()

Активный релизер  (150 релизов) (1) Помощь (1) Активный релизер  (100 релизов) (1) Активный релизер  (1000 релизов) (1)
За внесенный вклад в развитие сайта (1) Активный релизер  (3000 релизов) (1) От администрации (1) Активный релизер  (50 релизов) (1)
Активный релизер (500 релизов) (1) Дизайн (1) Активисту (1) От администрации (1)

Post 21-Jul-2021 05:58

[Quote]

Информация о фильме
Название: Ага
Год выхода: 2021
Жанр: Боевик, триллер
Режиссер: Фархат Серкебаев
В ролях: Мурат Бисенбин, Азамат Ибраев, Болат Абдильманов, Фархад Абдраимов, Александр Устюгов, Марйам Сатаева, Руслан Каирбаев, Нурсултан Мухаметжанов, Руслан Акылбаев, Руслан Ныгманов
О фильме:
Бахытжан Абдулаев — бывший меч трех Жузов — после громких дел в прошлом, перенеся утрату близких людей, оставляет криминальный путь. Уединившись в горах, он проживает жизнь отшельником. Однако, весть о жестоком убийстве родного племянника нарушает его спокойствие и идиллию. Баха узнает, что виновником является Сакен — сын местного олигарха Сансызбая, опасного и влиятельного человека, на которого не распространяются законы. Баха принимает решение выйти на тропу войны против самых могущественных и влиятельных кланов трех Жузов. Он готов пойти на все, чтобы восстановить справедливость. Возможно, даже заплатить ценой своей жизни.

Страна: Казахстан
Студия: Toraigyr Film
Продолжительность: 01:25:05
Перевод: Не требуется
Файл
Качество: WEBRip 1080p
Формат: MKV
Кодек: MPEG-4 AVC
Видео: 1920x800 (2.40:1), 24 fps, MPEG-4 AVC ~ 4925 Kbps avg, 0.134 bit/pixel
Аудио: AC3, 48 kHz, 2 ch, ~192.00 kbps avg | русский |
Субтитры: Отсутствуют

Инфо-файл

Общее
Уникальный идентификатор : 227382529236884803290417892960372885458 (0xAB10483D86271894147D147BF45187D2)
Полное имя : Aga.2021.1080p.WEBRip.DD.2.0.MegaPeer.mkv
Формат : Matroska
Версия формата : Version 4
Размер файла : 3,04 Гбайт
Продолжительность : 1 ч. 25 м.
Общий поток : 5 119 Кбит/сек
Название фильма : Ага (2021) от MegaPeer
Дата кодирования : UTC 2021-07-20 19:31:22
Программа кодирования : mkvmerge v59.0.0 ('Shining Star') 64-bit
Библиотека кодирования : libebml v1.4.2 + libmatroska v1.6.4 / Lavf58.12.100
Обложка : Yes
Attachments : cover.jpg
Видео
Идентификатор : 1
Формат : AVC
Формат/Информация : Advanced Video Codec
Профиль формата : Main@L4
Настройки формата : CABAC / 1 Ref Frames
Параметр CABAC формата : Да
Параметр RefFrames формата : 1 кадр
Параметр GOP формата : M=1, N=25
Идентификатор кодека : V_MPEG4/ISO/AVC
Продолжительность : 1 ч. 25 м.
Битрейт : 4 925 Кбит/сек
Ширина : 1 920 пикселей
Высота : 800 пикселей
Соотношение сторон : 2,40:1
Режим частоты кадров : Постоянный
Частота кадров : 24,000 кадра/сек
Цветовое пространство : YUV
Субдискретизация насыщенности : 4:2:0
Битовая глубина : 8 бит
Тип развёртки : Прогрессивная
Бит/(Пиксели*Кадры) : 0.134
Размер потока : 2,93 Гбайт (96%)
Язык : Russian
Default : Да
Forced : Нет
Аудио
Идентификатор : 2
Формат : AC-3
Формат/Информация : Audio Coding 3
Коммерческое название : Dolby Digital
Идентификатор кодека : A_AC3
Продолжительность : 1 ч. 25 м.
Вид битрейта : Постоянный
Битрейт : 192 Кбит/сек
Каналы : 2 канала
Channel layout : L R
Частота : 48,0 КГц
Частота кадров : 31,250 кадров/сек (1536 SPF)
Метод сжатия : С потерями
Задержка видео : -5 мс.
Размер потока : 117 Мбайт (4%)
Язык : Russian
Service kind : Complete Main
Default : Да
Forced : Нет

Скриншоты

Сейчас вы смотрите Ага (2021) WEBRip 1080p от MegaPeer,не забываем оставлять комментарии!
Ага (2021) WEBRip 1080p от MegaPeer [mytorrnado.ru].t21109.torrent 
Torrent: Registered [ 2021-07-21 05:58 ] · 73C2CCAAC1BD927EC251D3C4A35E685B718D0ADF Google it!

Download .torrent

16 KB

Status: checked
Completed: 0 times
Тип торрента: Публичный  - Seed: 95;  Leeh: 30    
Size: 3.04 GB
Поделиться:
FAQ:
 
Как качать?
Как качать?
X
Скачайте торрент и откройте его в своем клиенте
uTorrent

скачать программу,
дождитесь окончания загрузки.
Если торрент закрыт? Инстркуция.
* Как смотреть?
Как смотреть?
X

Для работы Magic Player
Вам необходимо установить
Ace Stream P2P Multimedia Plug-in

Установить

Для работы Magic Player Вам необходимо включить
Ace Stream P2P Multimedia Plug-in

Инструкция
terms.php
Похожие темы




Запрещено категорически:
» Развязывать разборки (для этого есть ЛС)
» Оставлять комментарии, не относящиеся к содержанию материала.
» Добавлять спам, рекламу флуд..
К спаму относится:
1. Реклама любого направления.
2. Ссылки на сторонние ресурсы рекламного характера.
3. Ссылки на ресурсы порнографического направления.
4. Сылки на блоги и им подбным контeнтам.
» Запрещено оскорбление администрации, модераторов и пользователей.
» Часто писать с вкл. Caps Lock
»За нарушение правил бан или отключение без объяснений.
Уважайте чужой труд!

Правила могут дополняться и изменяться. С уважением Администрация.
[Profile] [PM]
Display posts    
Reply to topic

Current time is: 26-Jul 00:07

All times are UTC + 5



You cannot post new topics in this forum
You cannot reply to topics in this forum
You cannot edit your posts in this forum
You cannot delete your posts in this forum
You cannot vote in polls in this forum
You cannot attach files in this forum
You can download files in this forum










!ATTENTION!
The site does not give electronic versions of products, and is engaged only in a collecting and cataloguing of the references sent and published at a forum by our readers. If you are the legal owner of any submitted material and do not wish that the reference to it was in our catalogue, contact us and we shall immediately remove her. Files for an exchange on tracker are given by users of a site, and the administration does not bear the responsibility for their maintenance. The request to not fill in the files protected by copyrights, and also files of the illegal maintenance!