Непримиримые противоречия / Irreconcilable Differences (1984) BDRip от New-Team

DL-List and Torrent activity [Update ]
Size:  745 MB   |    Registered:  5 years 8 months   |    Completed:  33 times

Seeder not seen: Never

Leechers:  6  [  0 KB/s  ]  
 
     
 
 
 
Author Message

Иваныч ®

Gender: Male

Longevity: 5 years 8 months

Posts: 8227

Наличие запрета:


Карма  175 

Location: Россия,Курган



: 19 ()

Активный релизер  (150 релизов) (1) Активный релизер  (3000 релизов) (1) Дизайн (1) Активный релизер  (100 релизов) (1)
Реализация решений (1) Активный релизер  (2000 релизов) (1) Активный релизер  (250 и более релизов) (1) За внесенный вклад в развитие сайта (1)
Техпддержка (1) Активному релизеру (5000 раздач) (1) От администрации (1) От администрации (1)

Post 05-Nov-2015 17:39

[Quote]


Раздача является материалом, специально подготовленным и переведенным для new-team.org
- Страна: США
Производство: Hemdale Films, Lantana, Warner Bros. Pictures
Жанр: драма, мелодрама, комедия
Год выпуска: 1984
Продолжительность: 01:53:48
Перевод: Авторский (одноголосый) Антон Алексеев
Cубтитры: нет
Оригинальная аудиодорожка: нет
Режиссер: Чарльз Шайер / Charles Shyer
В ролях:
Райан О’Нил, Шелли Лонг, Дрю Бэрримор, Сэм Уонамейкер, Аллен Гарфилд, Шэрон Стоун, Ким Марринер, Венди Гордон, Кен Гэйл, Дебора Коуди...
Описание:
Супруги Альберт и Люси собираются развестись и начинают раздел имущества. Это приводит в возмущение их десятилетнюю дочь Кейси, которая вскоре подает на них в суд с целью лишить своих родителей родительских прав...- -Источник: BDRemux 1080p
Качество: BDRip
Формат: AVI
Видео: 624x352 (16:9), 23.976 fps, XviD ~ 778 kbps avg, 0.148 bit/pixel
Аудио: 48 kHz, MP3, 1 ch, 128 kbps
Дополнительно: На оригинальную дорожку наложен чистый голос перевода Антона Алексеева.
Раздача от:

MediaInfo

Общее
Полное имя : Neprimirimye.protivorechiya.1984.BDRip-745_[New-team]_by_AVP_Studio.avi
Формат : AVI
Формат/Информация : Audio Video Interleave
Размер файла : 745 Мбайт
Продолжительность : 1 ч. 53 м.
Общий поток : 915 Кбит/сек
Программа кодирования : VirtualDubMod 1.5.10.3 | www.virtualdub-fr.org || (build 2550/release)
Библиотека кодирования : VirtualDubMod build 2550/release
Видео
Идентификатор : 0
Формат : MPEG-4 Visual
Профиль формата : Advanced Simple@L5
Параметр BVOP формата : 1
Параметр QPel формата : Нет
Параметр GMC формата : Без точки перехода
Параметр матрицы формата : Выборочная
Идентификатор кодека : XVID
Идентификатор кодека/Подсказка : XviD
Продолжительность : 1 ч. 53 м.
Битрейт : 778 Кбит/сек
Ширина : 624 пикселя
Высота : 352 пикселя
Соотношение сторон : 16:9
Частота кадров : 23,976 кадра/сек
Цветовое пространство : YUV
Субдискретизация насыщенности : 4:2:0
Битовая глубина : 8 бит
Тип развёртки : Прогрессивная
Метод сжатия : С потерями
Бит/(Пиксели*Кадры) : 0.148
Размер потока : 633 Мбайт (85%)
Библиотека кодирования : XviD 73
Аудио
Идентификатор : 1
Формат : MPEG Audio
Версия формата : Version 1
Профиль формата : Layer 3
Идентификатор кодека : 55
Идентификатор кодека/Подсказка : MP3
Продолжительность : 1 ч. 53 м.
Вид битрейта : Постоянный
Битрейт : 128 Кбит/сек
Каналы : 1 канал
Частота : 48,0 КГц
Метод сжатия : С потерями
Размер потока : 104 Мбайт (14%)
Выравнивание : Соединение по промежуткам
Продолжительность промежутка : 42 мс. (1,00 видеокадр)
Время предзагрузки промежутка : 504 мс.
Библиотека кодирования : LAME3.99r
Настройки программы : -m m -V 4 -q 2 -lowpass 20.5 -b 128

Скриншоты:

Сейчас вы смотрите Непримиримые противоречия / Irreconcilable Differences (1984) BDRip от New-Team,не забываем оставлять комментарии!
Непримиримые противоречия / Irreconcilable Differences (1984) BDRip от New-Team [mytorrnado.ru].t235.torrent 
Torrent: Registered [ 2015-11-05 17:39 ] · A017B27C5BE8D26D3B287465D2DC1EF812FD4FDB Google it!

Download .torrent

16 KB

Status: checked
Completed: 33 times
Тип торрента:  Leeh: 6    
Size: 745 MB
Поделиться:
FAQ:
 
Как качать?
Как качать?
X
Скачайте торрент и откройте его в своем клиенте
uTorrent

скачать программу,
дождитесь окончания загрузки.
Если торрент закрыт? Инстркуция.
* Как смотреть?
Как смотреть?
X

Для работы Magic Player
Вам необходимо установить
Ace Stream P2P Multimedia Plug-in

Установить

Для работы Magic Player Вам необходимо включить
Ace Stream P2P Multimedia Plug-in

Инструкция
terms.php
Похожие темы




Запрещено категорически:
» Развязывать разборки (для этого есть ЛС)
» Оставлять комментарии, не относящиеся к содержанию материала.
» Добавлять спам, рекламу флуд..
К спаму относится:
1. Реклама любого направления.
2. Ссылки на сторонние ресурсы рекламного характера.
3. Ссылки на ресурсы порнографического направления.
4. Сылки на блоги и им подбным контeнтам.
» Запрещено оскорбление администрации, модераторов и пользователей.
» Часто писать с вкл. Caps Lock
»За нарушение правил бан или отключение без объяснений.
Уважайте чужой труд!

Правила могут дополняться и изменяться. С уважением Администрация.
[Profile] [PM]
Display posts    
Reply to topic

Current time is: 01-Aug 14:50

All times are UTC + 5



You cannot post new topics in this forum
You cannot reply to topics in this forum
You cannot edit your posts in this forum
You cannot delete your posts in this forum
You cannot vote in polls in this forum
You cannot attach files in this forum
You can download files in this forum










!ATTENTION!
The site does not give electronic versions of products, and is engaged only in a collecting and cataloguing of the references sent and published at a forum by our readers. If you are the legal owner of any submitted material and do not wish that the reference to it was in our catalogue, contact us and we shall immediately remove her. Files for an exchange on tracker are given by users of a site, and the administration does not bear the responsibility for their maintenance. The request to not fill in the files protected by copyrights, and also files of the illegal maintenance!