Человек-муравей / Ant-Man (2015) WEBRip | Звук c CAMRip

DL-List and Torrent activity [Update ]
Size:  750 MB   |    Registered:  5 years 9 months   |    Completed:  20 times
Seeders:  896  [  0 KB/s  ]   Leechers:  440  [  0 KB/s  ]  
 
     
 
 
Author Message

***DrJoker*** ®

Gender: Male

Longevity: 5 years 9 months

Posts: 1378

Наличие запрета:


Карма  140 

Location: Россия



: 13 ()

Активисту (1) Активный релизер  (250 и более релизов) (1) Реализация решений (1) Активный релизер  (200 релизов) (1)
От администрации (1) Активный релизер  (50 релизов) (1) Помощь (1) За внесенный вклад в развитие сайта (1)
Активный релизер  (150 релизов) (1) Активный релизер  (1000 релизов) (1) Активный релизер  (100 релизов) (1) Самый скачиваемый релиз (1)

Post 05-Nov-2015 20:33

[Quote]

Человек-муравей / Ant-Man

Производство: США / Marvel Studios Inc
Год выпуска: 2015 г.
Жанр: фантастика, боевик, комедия, приключения
Продолжительность: 01:57:16
Мировая премьера: 29 июня 2015
Российская премьера: 16 июля 2015, «WDSSPR»
Дата выхода DVD: 17 ноября 2015, «Уолт Дисней Компани СНГ»
Дата выхода Blu-Ray: 17 ноября 2015, «Уолт Дисней Компани СНГ»
Перевод: Профессиональный (полное дублирование) [звук с CAMRip]
Режиссер: Пейтон Рид / Peyton Reed-В ролях: Пол Радд, Майкл Дуглас, Эванджелин Лилли, Кори Столл, Майкл Пенья, Бобби, Каннавале, Ти-Ай, Давид Дастмалчян, Эбби Райдер Фортсон, Джуди Грир-Описание: Вооружившись удивительной способностью уменьшаться в размере, но обладать при этом большой силой, мошенник Скотт Лэнг должен стать героем и помочь своему наставнику, доктору Хэнку Пиму, сохранить в тайне существование костюма Человека-муравья от угроз нового поколения.

Качество видео: WEBRip
Контейнер: AVI
Видео кодек: XviD
Аудио кодек: MP3
Видео: 754 Кбит/сек, 640x336, 30,000 кадров/сек, 0.117 Бит/(Пиксели*Кадры)
Аудио: 128 Кбит/сек, 2 канала, 48,0 КГц
Cубтитры: отсутствуют

Media Info

Общее
Формат : AVI
Формат/Информация : Audio Video Interleave
Размер файла : 750 Мбайт
Продолжительность : 1 ч. 57 м.
Общий поток : 894 Кбит/сек
Программа кодирования : VirtualDubMod 1.5.10.2 (build 2540/release)
Библиотека кодирования : VirtualDub build 35576/release
Видео
Идентификатор : 0
Формат : MPEG-4 Visual
Профиль формата : Advanced Simple@L5
Параметр BVOP формата : 2
Параметр QPel формата : Нет
Параметр GMC формата : Без точки перехода
Параметр матрицы формата : Default (H.263)
Режим смешивания : Сжатый битовый поток
Идентификатор кодека : XVID
Идентификатор кодека/Подсказка : XviD
Продолжительность : 1 ч. 57 м.
Битрейт : 754 Кбит/сек
Ширина : 640 пикселей
Высота : 336 пикселей
Соотношение сторон : 1,905
Частота кадров : 30,000 кадров/сек
Цветовое пространство : YUV
Субдискретизация насыщенности : 4:2:0
Битовая глубина : 8 бит
Тип развёртки : Прогрессивная
Метод сжатия : С потерями
Бит/(Пиксели*Кадры) : 0.117
Размер потока : 633 Мбайт (84%)
Библиотека кодирования : XviD 73
Аудио
Идентификатор : 1
Формат : MPEG Audio
Версия формата : Version 1
Профиль формата : Layer 3
Режим : Joint stereo
Расширение режима : MS Stereo
Идентификатор кодека : 55
Идентификатор кодека/Подсказка : MP3
Продолжительность : 1 ч. 57 м.
Вид битрейта : Постоянный
Битрейт : 128 Кбит/сек
Каналы : 2 канала
Частота : 48,0 КГц
Метод сжатия : С потерями
Размер потока : 107 Мбайт (14%)
Выравнивание : Разделение по промежуткам
Продолжительность промежутка : 33 мс. (1,00 видеокадр)
Время предзагрузки промежутка : 500 мс.

Скриншоты

Сейчас вы смотрите Человек-муравей / Ant-Man (2015) WEBRip | Звук c CAMRip,не забываем оставлять комментарии!
Человек-муравей / Ant-Man (2015) WEBRip | Звук c CAMRip [mytorrnado.ru].t241.torrent 
Torrent: Registered [ 2015-11-05 20:33 ] · C7C411C92F709D478823B9692EF2B6840393C25B Google it!

Download .torrent

15 KB

Status: checked
Completed: 20 times
Тип торрента: Публичный  - Seed: 896;  Leeh: 440    
Size: 750 MB
Поделиться:
FAQ:
 
Как качать?
Как качать?
X
Скачайте торрент и откройте его в своем клиенте
uTorrent

скачать программу,
дождитесь окончания загрузки.
Если торрент закрыт? Инстркуция.
* Как смотреть?
Как смотреть?
X

Для работы Magic Player
Вам необходимо установить
Ace Stream P2P Multimedia Plug-in

Установить

Для работы Magic Player Вам необходимо включить
Ace Stream P2P Multimedia Plug-in

Инструкция
terms.php
Похожие темы




Запрещено категорически:
» Развязывать разборки (для этого есть ЛС)
» Оставлять комментарии, не относящиеся к содержанию материала.
» Добавлять спам, рекламу флуд..
К спаму относится:
1. Реклама любого направления.
2. Ссылки на сторонние ресурсы рекламного характера.
3. Ссылки на ресурсы порнографического направления.
4. Сылки на блоги и им подбным контeнтам.
» Запрещено оскорбление администрации, модераторов и пользователей.
» Часто писать с вкл. Caps Lock
»За нарушение правил бан или отключение без объяснений.
Уважайте чужой труд!

Правила могут дополняться и изменяться. С уважением Администрация.
[Profile] [PM]
Display posts    
Reply to topic

Current time is: 05-Aug 22:42

All times are UTC + 5



You cannot post new topics in this forum
You cannot reply to topics in this forum
You cannot edit your posts in this forum
You cannot delete your posts in this forum
You cannot vote in polls in this forum
You cannot attach files in this forum
You can download files in this forum










!ATTENTION!
The site does not give electronic versions of products, and is engaged only in a collecting and cataloguing of the references sent and published at a forum by our readers. If you are the legal owner of any submitted material and do not wish that the reference to it was in our catalogue, contact us and we shall immediately remove her. Files for an exchange on tracker are given by users of a site, and the administration does not bear the responsibility for their maintenance. The request to not fill in the files protected by copyrights, and also files of the illegal maintenance!