Начать новую тему Ответить на тему  [ 1 сообщение ] 
Статистика раздачи
Размер|   6.93 ГБ    |   7 437 520 096 байт   
Раздают: 127  [0 байт/сек]   Качают: 20 [0 байт/сек]    
Последний личер: | 15 часов 18 минут 59 секунд назад  | (Google it!)
Автор Сообщение
Непрочитанное сообщение Добавлено: 01 июн 2020, 21:32 
Ответить с цитатой
Не в сети
Администратор
Администратор
Аватара пользователя


Открыть статистику

Раздал: 6.3 ТБ
Скачал: 47.5 ГБ
Ратио: 1134.913


Зарегистрирован: 01 июл 2016, 17:16
Сообщения: 2851
Баллы репутации: 10
За самый скачиваемый релиз
Медали: 8
за участие (1) Создание сайта (1) За 100 релизов (1) за 200 релизов (1)
За 500 релизов (1) За 1000 релизов (1) Кандидат на повышение (1) Подписчику в группе ВК (1)
Журавль в небе [01-12 из 12] (2020) SATRip-AVC 

Наименование: Журавль в небе
Год выпуска: 2018
Жанр: Драма
Страна: Россия
Режиссёр: Сергей Комаров
Серия:1-12 из 12
В ролях: Мария Луговая, Владимир Потапов, Михаил Гаврилов (II), Филипп Горенштейн, Сергей Пускепалис, Ольга Кабо, Валентина Теличкина, Борис Невзоров, Игорь Филиппов, Никита Абдулов, Владимир Чуприков, Александр Волков (IV), Наталья Унгард, Татьяна Сомова, Юрий Оленников, Никита Григорьев, Лина Весёлкина

Сюжет фильма: Фильм о нелёгкой, но головокружительной судьбе лётчика-испытателя Аси Солнцевой. Действие картины разворачивается в период с 1961 по 1983 годы - на историческом фоне создания «самолёта будущего»: первого в мире сверхзвукового пассажирского лайнера. Неземная любовь к мужчине всей её жизни, пилоту Юрию Громову, ведёт нашу героиню через все немыслимые преграды к воплощению ее мечты: летать вдвоём на чудо-«Журавле». Но обретёт ли она своё счастье?



Продолжительность: ~ 00:50:00
Формат файла: AVI
Качество: SATRip-AVC
Видео: MPEG-4 AVC, ~ 1500 Кбит/с, 720х400
Аудио:, 41 kHz, AC3 , 2 ch, 192 Кбит/с кб/с.
Перевод:Не требуется
Субтитры: Нет
Общее
Полное имя : D:Zhuravl v nebe.HDTVRip.GeneralFilm1.Zhuravl v nebe.HDTVRip.GeneralFilm.avi
Формат : AVI
Формат/Информация : Audio Video Interleave
Размер файла : 635 Мбайт
Продолжительность : 49 м.
Общий поток : 1802 Кбит/сек

Видео
Идентификатор : 0
Формат : MPEG-4 Visual
Профиль формата : Advanced Simple@L5
Параметр BVOP формата : 1
Параметр QPel формата : Нет
Параметр GMC формата : Без точки перехода
Параметр матрицы формата : Выборочная
Идентификатор кодека : XVID
Идентификатор кодека/Подсказка : XviD
Продолжительность : 49 м.
Битрейт : 1599 Кбит/сек
Ширина : 720 пикселей
Высота : 400 пикселей
Соотношение сторон : 16:9
Частота кадров : 25,000 кадров/сек
Цветовое пространство : YUV
Субдискретизация насыщенности : 4:2:0
Битовая глубина : 8 бит
Тип развёртки : Прогрессивная
Метод сжатия : С потерями
Бит/(Пиксели*Кадры) : 0.222
Размер потока : 563 Мбайт (89%)
Библиотека кодирования : XviD 1.2.1 (UTC 2008-12-04)

Аудио
Идентификатор : 1
Формат : AC-3
Формат/Информация : Audio Coding 3
Расширение режима : CM (complete main)
Параметр Endianness формата : Big
Идентификатор кодека : 2000
Продолжительность : 49 м.
Вид битрейта : Постоянный
Битрейт : 192 Кбит/сек
Каналы : 2 канала
Расположение каналов : Front: L R
Частота : 48,0 КГц
Битовая глубина : 16 бит
Метод сжатия : С потерями
Размер потока : 67,6 Мбайт (11%)
Выравнивание : Соединение по промежуткам
Продолжительность промежутка : 32 мс. (0,80 видеокадр)





Релиз группа:

_________________



 Профиль
 
 
Понравилась тема расскажи друзьям!


Журавль в небе [01-12 из 12] (2020) SATRip-AVC.torrent 
Зарегистрирован:  01 июн 2020, 21:32  HASH|384ba4e0db4d276c487c833a5730b52f30665576| (Google it!)
Статус:  √ Проверен  хакер (10 июн 2020, 18:22)
Торрент:  Размер: 6.93 ГБ | Скачан: 13147 раз | Торрент файл: 36.58 КБ  
Приватный:    Нет (DHT включён)
Здоровье:   100%
Поделиться:
 
Как качать?
Как качать?
X
Скачайте торрент и откройте его в своем клиенте
uTorrent

скачать программу,
дождитесь окончания загрузки.
* Как смотреть?
Как смотреть?
X

Для работы Magic Player
Вам необходимо установить
Ace Stream P2P Multimedia Plug-in

Установить

Для работы Magic Player
Вам необходимо включить
Ace Stream P2P Multimedia Plug-in

Инструкция
Показать сообщения за:  Поле сортировки  
Начать новую тему Ответить на тему  [ 1 сообщение ] 

   Похожие торренты   Автор   Ответы   Просмотры   Последнее сообщение 
Непрочитанные сообщения Скачать торрент Магнет ссылка √ Проверен Перейти к первому непрочитанному сообщениюСледствие вели - Убийственное лето [24/05/2020, Документальный, расследование, SATRip] (2020) SATRip

в форуме Документальные фильмы, Размер: 560.08 МБ, Здоровье: 100%

хакер

0
4|0

88
324

24 май 2020, 13:25

хакер Перейти к последнему сообщению

Непрочитанные сообщения Скачать торрент Магнет ссылка √ Проверен Перейти к первому непрочитанному сообщениюДороги любви. Юбилейный концерт Дмитрия Харатьяна [24/05/2020, Концерт, SATRip] (24/05/202) SATRip За каждые 6.93 байт. аплоада (сидирования) этого торрента начисляется бонус: 2.000

в форуме Тв шоу, Размер: 1.46 ГБ, Здоровье: 100%

хакер

0
5|0

77
89

24 май 2020, 15:54

хакер Перейти к последнему сообщению

Непрочитанные сообщения Скачать торрент Магнет ссылка √ Проверен Перейти к первому непрочитанному сообщениюСто к одному [07/06/2020, Тв-Шоу, SATRip]

в форуме Тв шоу, Размер: 567.4 МБ, Здоровье: 100%

хакер

0
13|1

65
124

07 июн 2020, 12:51

хакер Перейти к последнему сообщению

Непрочитанные сообщения Скачать торрент Магнет ссылка √ Проверен Перейти к первому непрочитанному сообщениюДНК [эфир 13.05] [Ток-Шоу, 2020] SATRip

в форуме Ток шоу, Размер: 585.13 МБ, Здоровье: 100%

K15

0
1|0

113
0

14 май 2020, 00:26

K15 Перейти к последнему сообщению

Непрочитанные сообщения Скачать торрент Магнет ссылка √ Проверен Перейти к первому непрочитанному сообщениюКвартирный вопрос [23/05/2020, Тв-Шоу, SATRip]

в форуме Хозяйсто и быт, Размер: 665.76 МБ, Здоровье: 100%

хакер

0
1|0

75
92

23 май 2020, 14:06

хакер Перейти к последнему сообщению



Кто сейчас на конференции

Сейчас этот форум просматривают: нет зарегистрированных пользователей и гости: 2


Вы не можете начинать темы
Вы не можете отвечать на сообщения
Вы не можете редактировать свои сообщения
Вы не можете удалять свои сообщения
Вы не можете добавлять вложения

Найти:
Перейти:  
!ВНИМАНИЕ!

Сайт не распространяет и не хранит электронные версии произведений, а лишь предоставляет доступ к создаваемому пользователями каталогу ссылок на торрент-файлы, которые содержат только списки хеш-сумм, убедительная просьба с жалобами обращаться напрямую к пользователю.
The site does not extend and does not store electronic(digital) versions of products, and only gives access to a reference catalogue created by users on torrent-files which contain only lists of the hash-sums, the earnest entreaty, with complaints(abuse) to access directly to the user.
Привет, меня зовут Ёко, я что-то типа ангела хранителя Mytorrnado club! (Если вы попали на наш портал, советуем задержаться у нас и посмотрель материалы.А лучше всего оставайтесь и делитесь своими файлами со всем народом.Кроме этого вы сможете просмотреть нужный фильм в оригинальном качестве.Регистрируйтесь и воспользуйтесь всеми опциями трекера.)
ppkBB3cker v.2 © 2008-2014 @ PPK