Железный человек 3 / Iron Man 3 (2013) HDRip | Живов

DL-List and Torrent activity [Update ]
Size:  1.46 GB   |    Registered:  5 years 8 months   |    Completed:  20 times
Seeders:  1  [  0 KB/s  ]   Leechers:  194  [  0 KB/s  ]  
 
     
 
 
 
Author Message

Иваныч ®

Gender: Male

Longevity: 5 years 9 months

Posts: 8246

Наличие запрета:


Карма  175 

Location: Россия,Курган



: 19 ()

Активный релизер  (50 релизов) (1) Активный релизер  (150 релизов) (1) Активный релизер  (2000 релизов) (1) Активному релизеру (5000 раздач) (1)
Активный релизер  (3000 релизов) (1) Дизайн (1) От администрации (1) Активный релизер (500 релизов) (1)
За внесенный вклад в развитие сайта (1) Активисту (1) Активный релизер  (100 релизов) (1) Активный релизер  (200 релизов) (1)

Post 06-Nov-2015 21:47

[Quote]

Железный человек 3 / Iron Man 3 (2013) HDRip - Производство: США, Китай
Жанр: Боевик, Фантастика, Приключения
Режиссер: Шейн Блэк
Актеры: Роберт Дауни мл., Гвинет Пэлтроу, Дон Чидл, Гай Пирс, Бен Кингсли, Ребекка Холл, Пол Беттани, Джон Фавро, Уильям Сэдлер, Джеймс Бэдж Дэйл
Описание:
Когда мир Старка рушится на его глазах по вине неизвестных противников, Тони жаждет найти виновных и свести с ними счеты. Оказавшись в безвыходной ситуации, Старк может рассчитывать только на себя и свою изобретательность, чтобы защитить тех, кто ему дорог. Это становится настоящим испытанием для героя, которому придется не только сражаться с коварным врагом, но и разобраться в себе, чтобы найти ответ на вопрос, который давно его тревожит: что важнее — человек или костюм?

Релиз от: FAGOT100 (NNM-CLUB)
Продолжительность: 02:10:33
Качество видео: HDRip
Перевод: Авторский (одноголосый, закадровый)
Автор перевода: Ю.Живов
Субтитры: отсутствуют
Видео: Xvid, 720x304, ~1207 kbps
Аудио: AC3, 6 ch, 384 Kbps
Скриншоты:

Mediainfo:

Формат : AVI
Формат/Информация : Audio Video Interleave
Размер файла : 1,46 Гбайт
Продолжительность : 2 ч. 10 м.
Общий поток : 1600 Кбит/сек
Программа кодирования : VirtualDubMod 1.5.10.3 | www.virtualdub-fr.org || (build 2550/release)
Библиотека кодирования : VirtualDubMod build 2550/release
Видео
Идентификатор : 0
Формат : MPEG-4 Visual
Профиль формата : Advanced Simple@L5
Параметр BVOP формата : 1
Параметр QPel формата : Нет
Параметр GMC формата : Без точки перехода
Параметр матрицы формата : Выборочная
Идентификатор кодека : XVID
Идентификатор кодека/Подсказка : XviD
Продолжительность : 2 ч. 10 м.
Битрейт : 1207 Кбит/сек
Ширина : 720 пикселей
Высота : 304 пикселя
Соотношение сторон : 2,35:1
Частота кадров : 23,976 кадра/сек
Цветовое пространство : YUV
Субдискретизация насыщенности : 4:2:0
Битовая глубина : 8 бит
Тип развёртки : Прогрессивная
Метод сжатия : С потерями
Бит/(Пиксели*Кадры) : 0.230
Размер потока : 1,10 Гбайт (75%)
Библиотека кодирования : XviD 73
Аудио
Идентификатор : 1
Формат : AC-3
Формат/Информация : Audio Coding 3
Расширение режима : CM (complete main)
Параметр Endianness формата : Big
Идентификатор кодека : 2000
Продолжительность : 2 ч. 10 м.
Вид битрейта : Постоянный
Битрейт : 384 Кбит/сек
Каналы : 6 каналов
Расположение каналов : Front: L C R, Side: L R, LFE
Частота : 48,0 КГц
Битовая глубина : 16 бит
Метод сжатия : С потерями
Размер потока : 359 Мбайт (24%)
Выравнивание : Разделение по промежуткам
Продолжительность промежутка : 42 мс. (1,00 видеокадр)
Время предзагрузки промежутка : 500 мс.
Сейчас вы смотрите Железный человек 3 / Iron Man 3 (2013) HDRip | Живов,не забываем оставлять комментарии!
Железный человек 3 / Iron Man 3 (2013) HDRip | Живов [mytorrnado.ru].t328.torrent 
Torrent: Registered [ 2015-11-06 21:47 ] · 271CC2BFBFF0C1DCBF363D45F1903FA3F63992B7 Google it!

Download .torrent

15 KB

Status: checked
Completed: 20 times
Тип торрента: Публичный  - Seed: 1;  Leeh: 194    
Size: 1.46 GB
Поделиться:
FAQ:
 
Как качать?
Как качать?
X
Скачайте торрент и откройте его в своем клиенте
uTorrent

скачать программу,
дождитесь окончания загрузки.
Если торрент закрыт? Инстркуция.
* Как смотреть?
Как смотреть?
X

Для работы Magic Player
Вам необходимо установить
Ace Stream P2P Multimedia Plug-in

Установить

Для работы Magic Player Вам необходимо включить
Ace Stream P2P Multimedia Plug-in

Инструкция
terms.php
Похожие темы




Запрещено категорически:
» Развязывать разборки (для этого есть ЛС)
» Оставлять комментарии, не относящиеся к содержанию материала.
» Добавлять спам, рекламу флуд..
К спаму относится:
1. Реклама любого направления.
2. Ссылки на сторонние ресурсы рекламного характера.
3. Ссылки на ресурсы порнографического направления.
4. Сылки на блоги и им подбным контeнтам.
» Запрещено оскорбление администрации, модераторов и пользователей.
» Часто писать с вкл. Caps Lock
»За нарушение правил бан или отключение без объяснений.
Уважайте чужой труд!

Правила могут дополняться и изменяться. С уважением Администрация.
[Profile] [PM]
Display posts    
Reply to topic

Current time is: 05-Aug 23:15

All times are UTC + 5



You cannot post new topics in this forum
You cannot reply to topics in this forum
You cannot edit your posts in this forum
You cannot delete your posts in this forum
You cannot vote in polls in this forum
You cannot attach files in this forum
You can download files in this forum










!ATTENTION!
The site does not give electronic versions of products, and is engaged only in a collecting and cataloguing of the references sent and published at a forum by our readers. If you are the legal owner of any submitted material and do not wish that the reference to it was in our catalogue, contact us and we shall immediately remove her. Files for an exchange on tracker are given by users of a site, and the administration does not bear the responsibility for their maintenance. The request to not fill in the files protected by copyrights, and also files of the illegal maintenance!