Конан-варвар / Conan the Barbarian (2011) BDRip 720p | D, A

DL-List and Torrent activity [Update ]
Size:  3.93 GB   |    Registered:  5 years 8 months   |    Completed:  32 times
Seeders:  1  [  0 KB/s  ]   Leechers:  53  [  0 KB/s  ]  
 
     
 
 
 
Author Message

Иваныч ®

Gender: Male

Longevity: 5 years 8 months

Posts: 8203

Наличие запрета:


Карма  175 

Location: Россия,Курган



: 19 ()

Помощь (1) За внесенный вклад в развитие сайта (1) Активному релизеру (5000 раздач) (1) Активный релизер  (250 и более релизов) (1)
Активный релизер  (150 релизов) (1) Активный релизер  (2000 релизов) (1) Техпддержка (1) Активный релизер  (3000 релизов) (1)
Активный релизер  (100 релизов) (1) Дизайн (1) От администрации (1) Реализация решений (1)

Post 07-Nov-2015 03:25

[Quote]


Информация о фильме
Название: Конан-варвар
Оригинальное название: Conan the Barbarian
Год выхода: 2011
Жанр: фэнтези, боевик, приключения
Режиссер: Маркус Ниспел
В ролях:
Джейсон Момоа — Конан, Лео Ховард — юный Конан, Рэйчел Николс — Тамара, Стивен Лэнг — Халар Зим, Роуз МакГоун — Марика, Рон Перлман — Корин, Боб Сапп — Укафа, Саид Тагмауи — Эла-Шан, Нонсо Анози — Артус, Милтон Уэлш — Ремо, Раад Рави — Фассир, Стивен О’Доннелл — Люциус.
О фильме:
Природа наделила его силой. Гибель отца сделала его свирепым. Великий киммерийский воин Конан отправляется в дальнее странствие, чтобы совершить отмщение за кровь своего рода. Но поиски, которые начинаются как личная вендетта, вскоре оборачиваются эпической схваткой со сверхъестественными силами, поработившими народы великой Хайбории. Киммерийский воин — последняя надежда на спасение…

Страна: США
Студия: Millennium Films, Nu-Image Films, Paradox Entertainment, Lionsgate
Продолжительность: 01:52:42
Перевод: Дублированный, Авторский одноголосый, Оригинал
Файл
Кодек: x264
Качество: BDRip 720p
Видео: 1280x534 (2,40:1), 23.976 fps, 3936 kbps
Звук:
Аудио #1: AC3, 384 Kbps, 48.0 KHz, 6 ch (Rus) Дублированный, Мосфильм-Мастер
Аудио #2: AC3, 192 Kbps, 48.0 KHz, 2 ch (Rus) Авторский одноголосый, А.Алексеев
Аудио #3: AC3, 384 Kbps, 48.0 KHz, 6 ch (Eng) Оригинал
Субтитры: Русские, Английские

Скриншоты


MediaInfo

Формат : Matroska
Версия формата : Version 2
Размер файла : 3,93 Гбайт
Продолжительность : 1 ч. 52 м.
Общий поток : 4996 Кбит/сек
Дата кодирования : UTC 2015-10-27 19:18:39
Программа кодирования : mkvmerge v5.4.0 ('Piper') built on Mar 10 2012 13:34:39
Библиотека кодирования : libebml v1.2.3 + libmatroska v1.3.0
Видео
Идентификатор : 1
Формат : AVC
Формат/Информация : Advanced Video Codec
Профиль формата : High@L4.1
Параметр CABAC формата : Да
Параметр ReFrames формата : 8 кадров
Идентификатор кодека : V_MPEG4/ISO/AVC
Продолжительность : 1 ч. 52 м.
Битрейт : 3936 Кбит/сек
Ширина : 1280 пикселей
Высота : 534 пикселя
Соотношение сторон : 2,40:1
Режим частоты кадров : Постоянный
Частота кадров : 23,976 кадра/сек
Цветовое пространство : YUV
Субдискретизация насыщенности : 4:2:0
Битовая глубина : 8 бит
Тип развёртки : Прогрессивная
Бит/(Пиксели*Кадры) : 0.240
Размер потока : 3,10 Гбайт (79%)
Заголовок : Conan the Barbarian / Конан-варвар (2011)
Библиотека кодирования : x264 core 125 r2208 d9d2288
Настройки программы : cabac=1 / ref=8 / deblock=1:-3:-3 / analyse=0x3:0x133 / me=umh / subme=11 / psy=1 / psy_rd=1.00:0.00 / mixed_ref=1 / me_range=32 / chroma_me=1 / trellis=2 / 8x8dct=1 / cqm=0 / deadzone=21,11 / fast_pskip=0 / chroma_qp_offset=-2 / threads=12 / lookahead_threads=2 / sliced_threads=0 / nr=0 / decimate=1 / interlaced=0 / bluray_compat=0 / constrained_intra=0 / bframes=8 / b_pyramid=2 / b_adapt=2 / b_bias=0 / direct=1 / weightb=1 / open_gop=0 / weightp=2 / keyint=250 / keyint_min=23 / scenecut=40 / intra_refresh=0 / rc=crf / mbtree=0 / crf=17.8 / qcomp=0.60 / qpmin=0 / qpmax=69 / qpstep=4 / ip_ratio=1.40 / pb_ratio=1.30 / aq=1:1.00
Язык : English
Default : Да
Forced : Нет
Аудио #1
Идентификатор : 2
Формат : AC-3
Формат/Информация : Audio Coding 3
Расширение режима : CM (complete main)
Параметр Endianness формата : Big
Идентификатор кодека : A_AC3
Продолжительность : 1 ч. 52 м.
Вид битрейта : Постоянный
Битрейт : 384 Кбит/сек
Каналы : 6 каналов
Расположение каналов : Front: L C R, Side: L R, LFE
Частота : 48,0 КГц
Битовая глубина : 16 бит
Метод сжатия : С потерями
Размер потока : 310 Мбайт (8%)
Заголовок : DUB (Russian) Мосфильм-Мастер
Язык : Russian
Default : Да
Forced : Нет
Аудио #2
Идентификатор : 3
Формат : AC-3
Формат/Информация : Audio Coding 3
Расширение режима : CM (complete main)
Параметр Endianness формата : Big
Идентификатор кодека : A_AC3
Продолжительность : 1 ч. 52 м.
Вид битрейта : Постоянный
Битрейт : 192 Кбит/сек
Каналы : 2 канала
Расположение каналов : Front: L R
Частота : 48,0 КГц
Битовая глубина : 16 бит
Метод сжатия : С потерями
Размер потока : 155 Мбайт (4%)
Заголовок : AVO (А.Алексеев)
Язык : Russian
Default : Нет
Forced : Нет
Аудио #3
Идентификатор : 4
Формат : AC-3
Формат/Информация : Audio Coding 3
Расширение режима : CM (complete main)
Параметр Endianness формата : Big
Идентификатор кодека : A_AC3
Продолжительность : 1 ч. 52 м.
Вид битрейта : Постоянный
Битрейт : 384 Кбит/сек
Каналы : 6 каналов
Расположение каналов : Front: L C R, Side: L R, LFE
Частота : 48,0 КГц
Битовая глубина : 16 бит
Метод сжатия : С потерями
Размер потока : 310 Мбайт (8%)
Заголовок : Original (English)
Язык : English
Default : Нет
Forced : Нет
Текст #1
Идентификатор : 5
Формат : UTF-8
Идентификатор кодека : S_TEXT/UTF8
Идентификатор кодека/Информация : UTF-8 Plain Text
Заголовок : Rus
Язык : Russian
Default : Нет
Forced : Нет
Текст #2
Идентификатор : 6
Формат : UTF-8
Идентификатор кодека : S_TEXT/UTF8
Идентификатор кодека/Информация : UTF-8 Plain Text
Заголовок : Eng
Язык : English
Default : Нет
Forced : Нет
Меню
00:00:00.000 : en:Chapter 01
00:08:11.561 : en:Chapter 02
00:15:34.461 : en:Chapter 03
00:22:14.653 : en:Chapter 04
00:29:43.184 : en:Chapter 05
00:36:49.485 : en:Chapter 06
00:43:15.204 : en:Chapter 07
00:50:17.459 : en:Chapter 08
00:57:29.891 : en:Chapter 09
01:04:12.168 : en:Chapter 10
01:10:35.467 : en:Chapter 11
01:17:48.567 : en:Chapter 12
01:24:50.697 : en:Chapter 13
01:32:22.815 : en:Chapter 14
01:40:48.529 : en:Chapter 15
01:48:00.377 : en:Chapter 16
Сейчас вы смотрите Конан-варвар / Conan the Barbarian (2011) BDRip 720p | D, A,не забываем оставлять комментарии!
Конан-варвар / Conan the Barbarian (2011) BDRip 720p | D, A [mytorrnado.ru].t354.torrent 
Torrent: Registered [ 2015-11-07 03:25 ] · 848CD6DE1F40CB45DD5B2AD4F0C2B0EDAB1FB446 Google it!

Download .torrent

21 KB

Status: checked
Completed: 32 times
Тип торрента: Публичный  - Seed: 1;  Leeh: 53    
Size: 3.93 GB
Поделиться:
FAQ:
 
Как качать?
Как качать?
X
Скачайте торрент и откройте его в своем клиенте
uTorrent

скачать программу,
дождитесь окончания загрузки.
Если торрент закрыт? Инстркуция.
* Как смотреть?
Как смотреть?
X

Для работы Magic Player
Вам необходимо установить
Ace Stream P2P Multimedia Plug-in

Установить

Для работы Magic Player Вам необходимо включить
Ace Stream P2P Multimedia Plug-in

Инструкция
terms.php
Похожие темы




Запрещено категорически:
» Развязывать разборки (для этого есть ЛС)
» Оставлять комментарии, не относящиеся к содержанию материала.
» Добавлять спам, рекламу флуд..
К спаму относится:
1. Реклама любого направления.
2. Ссылки на сторонние ресурсы рекламного характера.
3. Ссылки на ресурсы порнографического направления.
4. Сылки на блоги и им подбным контeнтам.
» Запрещено оскорбление администрации, модераторов и пользователей.
» Часто писать с вкл. Caps Lock
»За нарушение правил бан или отключение без объяснений.
Уважайте чужой труд!

Правила могут дополняться и изменяться. С уважением Администрация.
[Profile] [PM]
Display posts    
Reply to topic

Current time is: 24-Jul 16:35

All times are UTC + 5



You cannot post new topics in this forum
You cannot reply to topics in this forum
You cannot edit your posts in this forum
You cannot delete your posts in this forum
You cannot vote in polls in this forum
You cannot attach files in this forum
You can download files in this forum










!ATTENTION!
The site does not give electronic versions of products, and is engaged only in a collecting and cataloguing of the references sent and published at a forum by our readers. If you are the legal owner of any submitted material and do not wish that the reference to it was in our catalogue, contact us and we shall immediately remove her. Files for an exchange on tracker are given by users of a site, and the administration does not bear the responsibility for their maintenance. The request to not fill in the files protected by copyrights, and also files of the illegal maintenance!