Земля будущего / Tomorrowland (2015) BDRip-AVC от ExKinoRay | Лицензия

DL-List and Torrent activity [Update ]
Size:  2.89 GB   |    Registered:  5 years 8 months   |    Completed:  20 times
Seeders:  1  [  0 KB/s  ]   Leechers:  23  [  0 KB/s  ]  
 
     
 
 
 
Author Message

Иваныч ®

Gender: Male

Longevity: 5 years 8 months

Posts: 8217

Наличие запрета:


Карма  175 

Location: Россия,Курган



: 19 ()

Активный релизер  (50 релизов) (1) Помощь (1) Активному релизеру (5000 раздач) (1) Техпддержка (1)
Активный релизер  (1000 релизов) (1) Активный релизер  (200 релизов) (1) От администрации (1) Активный релизер  (250 и более релизов) (1)
Активный релизер  (100 релизов) (1) Активный релизер  (150 релизов) (1) Активный релизер (500 релизов) (1) Активисту (1)

Post 07-Nov-2015 09:07

[Quote]

Информация о фильме
Название: Земля будущего
Оригинальное название: Tomorrowland
Год выпуска: 2015
Жанр: Фантастика, боевик, детектив, приключения
Выпущено: США, Испания, A113, Babieka, Walt Disney Pictures
Режиссер: Брэд Берд
В ролях: Бритт Робертсон, Джордж Клуни, Рэффи Кэссиди, Хью Лори, Тим МакГроу, Кэтрин Хан, Кигэн-Майкл Ки, Кристофер Бауэр, Томас Робинсон, Пирс Гэнон, Мэттью МакКоулл, Джуди Грир, Мэтт Андерсон, Майкл Джаккино, Д. Хэрлан Катшелл, Шило Нельсон, Ксанта Рэдли, Дэвид Найкл, Пол МакДжиллион, Пирс Виссер
О фильме: Когда в руки к молодой девушке, жаждущей новых приключений, попадает загадочный предмет, открывающий доступ в параллельную реальность, она вынуждена обратиться за помощью к циничному гению-изобретателю Фрэнку. Кейси должна убедить бывшего вундеркинда раскрыть ей тайну загадочного места, находящегося вне привычной реальности, известного как Земля будущего, и убедить Фрэнка вернуться туда, откуда его однажды изгнали…

Файл
Качество: BDRip (AVC)
Видео: MPEG-4 AVC, 2285 Кбит/с, 1024x466
Аудио: Русский, английский (AC3, 6 ch, 448 Кбит/с)
Продолжительность: 02:10:03
Перевод: Дублированный
Субтитры: Русские, английские
Озвучивание: Дублированное (Лицензия).
Сохранены оригинальные чаптеры как на Blu-Ray.

Инфо-файл

General
Unique ID : 234768409172207843941277625651143323847 (0xB09EC03C6E1EB9A6BA479AF2BF6330C7)
Complete name : C:Tomorrowland.2015.D.BDRip.AVC.ExKinoRay.mkv
Format : Matroska
Format version : Version 4 / Version 2
File size : 2.89 GiB
Duration : 2h 10mn
Overall bit rate : 3 182 Kbps
Movie name : Земля будущего 2015 from ExKinoRay
Encoded date : UTC 2015-11-07 00:22:58
Writing application : mkvmerge v6.6.0 ('The Edge Of The In Between') built on Dec 1 2013 17:55:00
Writing library : libebml v1.3.0 + libmatroska v1.4.1
Video
ID : 1
Format : AVC
Format/Info : Advanced Video Codec
Format profile : High@L4.1
Format settings, CABAC : Yes
Format settings, ReFrames : 10 frames
Codec ID : V_MPEG4/ISO/AVC
Duration : 2h 10mn
Bit rate : 2 285 Kbps
Width : 1 024 pixels
Height : 466 pixels
Display aspect ratio : 2.2:1
Frame rate mode : Constant
Frame rate : 23.976 fps
Color space : YUV
Chroma subsampling : 4:2:0
Bit depth : 8 bits
Scan type : Progressive
Bits/(Pixel*Frame) : 0.200
Stream size : 2.02 GiB (70%)
Title : Enigma
Writing library : x264 core 133 r2334 a3ac64b
Encoding settings : cabac=1 / ref=10 / deblock=1:-2:-2 / analyse=0x3:0x113 / me=umh / subme=10 / psy=1 / psy_rd=1.05:0.15 / mixed_ref=1 / me_range=32 / chroma_me=1 / trellis=2 / 8x8dct=1 / cqm=0 / deadzone=21,11 / fast_pskip=0 / chroma_qp_offset=-3 / threads=12 / lookahead_threads=2 / sliced_threads=0 / nr=0 / decimate=0 / interlaced=0 / bluray_compat=0 / constrained_intra=0 / bframes=9 / b_pyramid=2 / b_adapt=2 / b_bias=0 / direct=3 / weightb=1 / open_gop=0 / weightp=2 / keyint=240 / keyint_min=23 / scenecut=40 / intra_refresh=0 / rc_lookahead=40 / rc=2pass / mbtree=0 / bitrate=2285 / ratetol=1.0 / qcomp=0.60 / qpmin=0 / qpmax=51 / qpstep=4 / cplxblur=20.0 / qblur=0.5 / vbv_maxrate=50000 / vbv_bufsize=62500 / nal_hrd=none / ip_ratio=1.40 / pb_ratio=1.30 / aq=1:1.00
Language : English
Default : Yes
Forced : No
Color primaries : BT.709
Transfer characteristics : BT.709
Matrix coefficients : BT.709
Audio #1
ID : 2
Format : AC-3
Format/Info : Audio Coding 3
Mode extension : CM (complete main)
Format settings, Endianness : Big
Codec ID : A_AC3
Duration : 2h 10mn
Bit rate mode : Constant
Bit rate : 448 Kbps
Channel(s) : 6 channels
Channel positions : Front: L C R, Side: L R, LFE
Sampling rate : 48.0 KHz
Bit depth : 16 bits
Compression mode : Lossy
Stream size : 417 MiB (14%)
Title : DUB (Лицензия)
Language : Russian
Default : Yes
Forced : No
Audio #2
ID : 3
Format : AC-3
Format/Info : Audio Coding 3
Mode extension : CM (complete main)
Format settings, Endianness : Big
Codec ID : A_AC3
Duration : 2h 10mn
Bit rate mode : Constant
Bit rate : 448 Kbps
Channel(s) : 6 channels
Channel positions : Front: L C R, Side: L R, LFE
Sampling rate : 48.0 KHz
Bit depth : 16 bits
Compression mode : Lossy
Stream size : 417 MiB (14%)
Language : English
Default : No
Forced : No
Text #1
ID : 4
Format : UTF-8
Codec ID : S_TEXT/UTF8
Codec ID/Info : UTF-8 Plain Text
Title : Forced
Language : Russian
Default : Yes
Forced : No
Text #2
ID : 5
Format : UTF-8
Codec ID : S_TEXT/UTF8
Codec ID/Info : UTF-8 Plain Text
Title : Full
Language : Russian
Default : No
Forced : No
Text #3
ID : 6
Format : UTF-8
Codec ID : S_TEXT/UTF8
Codec ID/Info : UTF-8 Plain Text
Title : Forced
Language : English
Default : No
Forced : No
Text #4
ID : 7
Format : UTF-8
Codec ID : S_TEXT/UTF8
Codec ID/Info : UTF-8 Plain Text
Title : SDH
Language : English
Default : No
Forced : No
Text #5
ID : 8
Format : UTF-8
Codec ID : S_TEXT/UTF8
Codec ID/Info : UTF-8 Plain Text
Title : SDH colored
Language : English
Default : No
Forced : No
Menu
00:00:00.000 : en:Chapters 01
00:16:12.011 : en:Chapters 02
00:21:56.565 : en:Chapters 03
00:28:52.188 : en:Chapters 04
00:37:37.045 : en:Chapters 05
00:46:35.416 : en:Chapters 06
00:55:01.047 : en:Chapters 07
01:11:48.470 : en:Chapters 08
01:19:18.086 : en:Chapters 09
01:26:45.033 : en:Chapters 10
01:30:57.702 : en:Chapters 11
01:38:05.296 : en:Chapters 12
01:49:50.500 : en:Chapters 13
01:56:11.296 : en:Chapters 14
02:01:26.945 : en:Chapters 15

Релиз от:
Автор релиза:
Сейчас вы смотрите Земля будущего / Tomorrowland (2015) BDRip-AVC от ExKinoRay | Лицензия,не забываем оставлять комментарии!
Земля будущего / Tomorrowland (2015) BDRip-AVC от ExKinoRay | Лицензия [mytorrnado.ru].t367.torrent 
Torrent: Registered [ 2015-11-07 09:07 ] · 93C4A055BC17B45867E566065FBA9DEBC1DBF324 Google it!

Download .torrent

15 KB

Status: checked
Completed: 20 times
Тип торрента: Публичный  - Seed: 1;  Leeh: 23    
Size: 2.89 GB
Поделиться:
FAQ:
 
Как качать?
Как качать?
X
Скачайте торрент и откройте его в своем клиенте
uTorrent

скачать программу,
дождитесь окончания загрузки.
Если торрент закрыт? Инстркуция.
* Как смотреть?
Как смотреть?
X

Для работы Magic Player
Вам необходимо установить
Ace Stream P2P Multimedia Plug-in

Установить

Для работы Magic Player Вам необходимо включить
Ace Stream P2P Multimedia Plug-in

Инструкция
terms.php
Похожие темы




Запрещено категорически:
» Развязывать разборки (для этого есть ЛС)
» Оставлять комментарии, не относящиеся к содержанию материала.
» Добавлять спам, рекламу флуд..
К спаму относится:
1. Реклама любого направления.
2. Ссылки на сторонние ресурсы рекламного характера.
3. Ссылки на ресурсы порнографического направления.
4. Сылки на блоги и им подбным контeнтам.
» Запрещено оскорбление администрации, модераторов и пользователей.
» Часто писать с вкл. Caps Lock
»За нарушение правил бан или отключение без объяснений.
Уважайте чужой труд!

Правила могут дополняться и изменяться. С уважением Администрация.
[Profile] [PM]
Display posts    
Reply to topic

Current time is: 29-Jul 17:12

All times are UTC + 5



You cannot post new topics in this forum
You cannot reply to topics in this forum
You cannot edit your posts in this forum
You cannot delete your posts in this forum
You cannot vote in polls in this forum
You cannot attach files in this forum
You can download files in this forum










!ATTENTION!
The site does not give electronic versions of products, and is engaged only in a collecting and cataloguing of the references sent and published at a forum by our readers. If you are the legal owner of any submitted material and do not wish that the reference to it was in our catalogue, contact us and we shall immediately remove her. Files for an exchange on tracker are given by users of a site, and the administration does not bear the responsibility for their maintenance. The request to not fill in the files protected by copyrights, and also files of the illegal maintenance!