Круг / Circle (2015) WEB-DLRip от ALGORITM | L1

DL-List and Torrent activity [Update ]
Size:  746 MB   |    Registered:  5 years 8 months   |    Completed:  29 times
Seeders:  75  [  0 KB/s  ]   Leechers:  64  [  0 KB/s  ]  
 
     
 
 
Author Message

Иваныч ®

Gender: Male

Longevity: 5 years 8 months

Posts: 8199

Наличие запрета:


Карма  175 

Location: Россия,Курган



: 19 ()

Активный релизер  (2000 релизов) (1) Дизайн (1) Активный релизер  (100 релизов) (1) За внесенный вклад в развитие сайта (1)
Активный релизер  (50 релизов) (1) Техпддержка (1) Помощь (1) Реализация решений (1)
Активный релизер  (3000 релизов) (1) От администрации (1) Активный релизер (500 релизов) (1) От администрации (1)

Post 07-Nov-2015 12:21

[Quote]



Год выпуска: 2015
Страна: США
Производство: Taggart Productions
Жанр: ужасы, фантастика, триллер, драма
Режиссер: Аарон Ханн, Марио Мисионе
В ролях: Джули Бенц, Картер Дженкинс, Мерси Мэлик, Мэтт Корбой, Лиза Пеликан, Сесар Гарсиа Гомес, Сара Сэндерсон, Кевин Шеридан, Коли Мустафа Спикс, Хорди Виласусо
Перевод: Любительский (одноголосый, закадровый)
Озвучка: Павел Морозов aka PashaUp
Субтитры: Нет
Описание: Пятьдесят незнакомцев просыпаются в огромной камере, не имея понятия о том, как попали сюда. Собранные в круг и не способные двигаться, они быстро понимают, что каждые две минуты одного из них будет убивать странное устройство в центре комнаты. Вскоре им становится ясно, что жертва выбирается не случайно, а ими самими, что они могут коллективно влиять на выбор, который делает машина. Но как решить, кто заслуживает умереть? И что будет, когда останется лишь один человек?




Качество: WEB-DLRip (исходник WEB-DL 720p)
Продолжительность: 01:26:26
Формат: AVI
Видео кодек: XviD
Аудио кодек: AC3
Видео: 688x288 (2.39:1), 23.976 fps, XviD build 73 ~1004 kbps avg, 0.21 bit/pixel
Аудио: 48 kHz, AC3 Dolby Digital, 2/0 (L,R) ch, ~192 kbps

МедиаИнфо

General
Complete name : D:Загрузки с трекеровCircle.WEB-DLRip.2015.by.ALGORITM.avi
Format : AVI
Format/Info : Audio Video Interleave
File size : 746 MiB
Duration : 1h 26mn
Overall bit rate : 1 206 Kbps
Writing application : VirtualDubMod 1.5.10.2 (build 2542/release)
Writing library : VirtualDubMod build 2542/release
Video
ID : 0
Format : MPEG-4 Visual
Format profile : Advanced Simple@L5
Format settings, BVOP : 1
Format settings, QPel : No
Format settings, GMC : No warppoints
Format settings, Matrix : Default (MPEG)
Codec ID : XVID
Codec ID/Hint : XviD
Duration : 1h 26mn
Bit rate : 1 005 Kbps
Width : 688 pixels
Height : 288 pixels
Display aspect ratio : 2.40:1
Frame rate : 23.976 fps
Color space : YUV
Chroma subsampling : 4:2:0
Bit depth : 8 bits
Scan type : Progressive
Compression mode : Lossy
Bits/(Pixel*Frame) : 0.211
Stream size : 621 MiB (83%)
Writing library : XviD 73
Audio
ID : 1
Format : AC-3
Format/Info : Audio Coding 3
Mode extension : CM (complete main)
Format settings, Endianness : Big
Codec ID : 2000
Duration : 1h 26mn
Bit rate mode : Constant
Bit rate : 192 Kbps
Channel(s) : 2 channels
Channel positions : Front: L R
Sampling rate : 48.0 KHz
Compression mode : Lossy
Stream size : 119 MiB (16%)
Alignment : Split accross interleaves
Interleave, duration : 42 ms (1.00 video frame)
Interleave, preload duratio : 500 ms

Скриншоты

Сейчас вы смотрите Круг / Circle (2015) WEB-DLRip от ALGORITM | L1,не забываем оставлять комментарии!
Круг / Circle (2015) WEB-DLRip от ALGORITM | L1 [mytorrnado.ru].t390.torrent 
Torrent: Registered [ 2015-11-07 12:21 ] · 89FFFCFDAA55887CF91385CF89A2A2294D52D21E Google it!

Download .torrent

15 KB

Status: checked
Completed: 29 times
Тип торрента: Публичный  - Seed: 75;  Leeh: 64    
Size: 746 MB
Поделиться:
FAQ:
 
Как качать?
Как качать?
X
Скачайте торрент и откройте его в своем клиенте
uTorrent

скачать программу,
дождитесь окончания загрузки.
Если торрент закрыт? Инстркуция.
* Как смотреть?
Как смотреть?
X

Для работы Magic Player
Вам необходимо установить
Ace Stream P2P Multimedia Plug-in

Установить

Для работы Magic Player Вам необходимо включить
Ace Stream P2P Multimedia Plug-in

Инструкция
terms.php
Похожие темы




Запрещено категорически:
» Развязывать разборки (для этого есть ЛС)
» Оставлять комментарии, не относящиеся к содержанию материала.
» Добавлять спам, рекламу флуд..
К спаму относится:
1. Реклама любого направления.
2. Ссылки на сторонние ресурсы рекламного характера.
3. Ссылки на ресурсы порнографического направления.
4. Сылки на блоги и им подбным контeнтам.
» Запрещено оскорбление администрации, модераторов и пользователей.
» Часто писать с вкл. Caps Lock
»За нарушение правил бан или отключение без объяснений.
Уважайте чужой труд!

Правила могут дополняться и изменяться. С уважением Администрация.
[Profile] [PM]
Display posts    
Reply to topic

Current time is: 24-Jul 09:30

All times are UTC + 5



You cannot post new topics in this forum
You cannot reply to topics in this forum
You cannot edit your posts in this forum
You cannot delete your posts in this forum
You cannot vote in polls in this forum
You cannot attach files in this forum
You can download files in this forum










!ATTENTION!
The site does not give electronic versions of products, and is engaged only in a collecting and cataloguing of the references sent and published at a forum by our readers. If you are the legal owner of any submitted material and do not wish that the reference to it was in our catalogue, contact us and we shall immediately remove her. Files for an exchange on tracker are given by users of a site, and the administration does not bear the responsibility for their maintenance. The request to not fill in the files protected by copyrights, and also files of the illegal maintenance!