Шанхайские рыцари / Shanghai Knights (2003) BDRip-AVC от FAGOT100 | D, P, A

DL-List and Torrent activity [Update ]
Size:  3.88 GB   |    Registered:  5 years 8 months   |    Completed:  26 times
Seeders:  38  [  0 KB/s  ]   Leechers:  50  [  0 KB/s  ]  
 
     
 
 
Author Message

Иваныч ®

Gender: Male

Longevity: 5 years 8 months

Posts: 8199

Наличие запрета:


Карма  175 

Location: Россия,Курган



: 19 ()

Активный релизер  (1000 релизов) (1) От администрации (1) Реализация решений (1) Активный релизер  (100 релизов) (1)
Активный релизер (500 релизов) (1) Активный релизер  (150 релизов) (1) Активный релизер  (200 релизов) (1) Дизайн (1)
За внесенный вклад в развитие сайта (1) От администрации (1) Активному релизеру (5000 раздач) (1) Активисту (1)

Post 07-Nov-2015 17:26

[Quote]


Название: Шанхайские рыцари
Оригинальное название: Shanghai Knights (Huang jia wei long)
Год выпуска: 2005
Жанр: Боевик, комедия, приключения, вестерн
Выпущено: США, Гонконг, Touchstone Pictures, Spyglass Entertainment, Birnbaum, Barber Productions
Продолжительность: 01:54:20
Перевод: Профессиональный (многоголосый, закадровый), авторский (одноголосый, закадровый), дубляж
Субтитры: русские, английские
Режиссер: Дэвид Добкин
В ролях: Джеки Чан, Оуэн Уилсон, Фэнн Вонг, Аарон Тейлор-Джонсон, Эйден Гиллен, Том Фишер, Донни Йен, Оливер Коттон, Элисон Кинг, Константин Грегори, Джонатан Харви, Ричард Хаас, Анна-Луиза Плауман, Джорджина Чэпман, Джон Оуенс, Ричард Бреммер, Ким Чан, Джемма Джонс, Эрик Мейерс, Дэйзи Бомонт, Стивен Фишер, Мэтт Хилл, Терри Хаусон, Райан Джеймс, Бэрри Стэнтон, Мэттью Стори, Том Ву, Винсент Ванг, Чарли Хоукинс, Герард Вилан, Рене Хайек, Хо Бан Ле, Ван Хай Буи, Петра Ежкова, Барбара Неделякова, Ева Ружичка, Том Клар, Жан Петрик, Карел Урбан, Дэвид Декио, Джеймс Эмбри
О фильме: После приручения Дикого Запада в комедии «Шанхайский полдень», Чон Ванг и Рой О`Баннон — опять в седле, но на сей раз совсем в другом месте — они оказались в цивилизованном Лондоне в продолжении этого фильма, «Шанхайских Рыцарях». Когда китайский предатель убивает отца Чона и убегает в Англию, Чон и Рой отправляются за ним в Лондон с планами мести. Сестра Чона, Лин, хочет того же, и раскрывает всемирный заговор против королевской семьи, но почти никто не верит ей. С помощью любезного инспектора Скотланд Ярда и 10-летнего уличного мальчишки, акробатический Чон дает Викторианской Англии хороший пинок, поскольку он одновременно пытается мстить за смерть своего отца и держать склонного к флирту Роя подальше от сестры.

Качество: BDRip-AVC
Видео: AVC, 1024x432 (2.35:1), 23.976 fps, 2 999 Kbps (0.283 bit/pixel)
Аудио #1: AC-3, 48.0 KHz, 6 ch, 384 Kbps, CBR (Russian) - многоголосый
Аудио #2: AC-3, 48.0 KHz, 6 ch, 384 Kbps, CBR (Russian) - многоголосый
Аудио #3: AC-3, 48.0 KHz, 6 ch, 448 Kbps, CBR (Russian) - А.Гаврилов
Аудио #4: AC-3, 48.0 KHz, 6 ch, 448 Kbps, CBR (Russian) - Е.Рудой
Аудио #5: AC-3, 48.0 KHz, 2 ch, 192 Kbps, CBR (Russian) - дубляж

Доп.инфа

Аудио #5 получена путем наложения дубляжа 2003 года на оригинальную дорожку, качество очень сомнительное

MI

Format : Matroska
Format version : Version 2
File size : 3.88 GiB
Duration : 1h 54mn
Overall bit rate : 4 853 Kbps
Encoded date : UTC 2015-02-17 11:47:07
Writing application : mkvmerge v5.3.0 ('I could have danced') built on Feb 9 2012 10:38:07
Writing library : libebml v1.2.3 + libmatroska v1.3.0
Attachment : Yes
Video
ID : 1
Format : AVC
Format/Info : Advanced Video Codec
Format profile : High@L4.1
Format settings, CABAC : Yes
Format settings, ReFrames : 10 frames
Codec ID : V_MPEG4/ISO/AVC
Duration : 1h 54mn
Bit rate : 2 999 Kbps
Width : 1 024 pixels
Height : 432 pixels
Display aspect ratio : 2.40:1
Frame rate mode : Constant
Frame rate : 23.976 fps
Color space : YUV
Chroma subsampling : 4:2:0
Bit depth : 8 bits
Scan type : Progressive
Bits/(Pixel*Frame) : 0.283
Stream size : 2.32 GiB (60%)
Writing library : x264 core 142 r2431 ac76440
Encoding settings : cabac=1 / ref=10 / deblock=1:-3:-3 / analyse=0x3:0x133 / me=umh / subme=10 / psy=1 / psy_rd=1.00:0.15 / mixed_ref=1 / me_range=32 / chroma_me=1 / trellis=2 / 8x8dct=1 / cqm=0 / deadzone=21,11 / fast_pskip=1 / chroma_qp_offset=-3 / threads=12 / lookahead_threads=2 / sliced_threads=0 / nr=0 / decimate=0 / interlaced=0 / bluray_compat=0 / constrained_intra=0 / bframes=8 / b_pyramid=2 / b_adapt=2 / b_bias=0 / direct=3 / weightb=1 / open_gop=0 / weightp=2 / keyint=240 / keyint_min=23 / scenecut=40 / intra_refresh=0 / rc=2pass / mbtree=0 / bitrate=2999 / ratetol=1.0 / qcomp=0.60 / qpmin=0 / qpmax=69 / qpstep=4 / cplxblur=20.0 / qblur=0.5 / ip_ratio=1.40 / pb_ratio=1.30 / aq=1:1.00
Language : English
Default : Yes
Forced : No
Audio #1
ID : 2
Format : AC-3
Format/Info : Audio Coding 3
Mode extension : CM (complete main)
Format settings, Endianness : Big
Codec ID : A_AC3
Duration : 1h 54mn
Bit rate mode : Constant
Bit rate : 384 Kbps
Channel(s) : 6 channels
Channel positions : Front: L C R, Side: L R, LFE
Sampling rate : 48.0 KHz
Bit depth : 16 bits
Compression mode : Lossy
Stream size : 314 MiB (8%)
Title : Многоголосый закадровый, R5
Language : Russian
Default : Yes
Forced : Yes
Audio #2
ID : 3
Format : AC-3
Format/Info : Audio Coding 3
Mode extension : CM (complete main)
Format settings, Endianness : Big
Codec ID : A_AC3
Duration : 1h 54mn
Bit rate mode : Constant
Bit rate : 384 Kbps
Channel(s) : 6 channels
Channel positions : Front: L C R, Side: L R, LFE
Sampling rate : 48.0 KHz
Bit depth : 16 bits
Compression mode : Lossy
Stream size : 314 MiB (8%)
Title : Многоголосый закадровый, ТНТ
Language : Russian
Default : No
Forced : No
Audio #3
ID : 4
Format : AC-3
Format/Info : Audio Coding 3
Mode extension : CM (complete main)
Format settings, Endianness : Big
Codec ID : A_AC3
Duration : 1h 54mn
Bit rate mode : Constant
Bit rate : 448 Kbps
Channel(s) : 6 channels
Channel positions : Front: L C R, Side: L R, LFE
Sampling rate : 48.0 KHz
Bit depth : 16 bits
Compression mode : Lossy
Stream size : 366 MiB (9%)
Title : Авторский А.Гаврилов
Language : Russian
Default : No
Forced : No
Audio #4
ID : 5
Format : AC-3
Format/Info : Audio Coding 3
Mode extension : CM (complete main)
Format settings, Endianness : Big
Codec ID : A_AC3
Duration : 1h 54mn
Bit rate mode : Constant
Bit rate : 448 Kbps
Channel(s) : 6 channels
Channel positions : Front: L C R, Side: L R, LFE
Sampling rate : 48.0 KHz
Bit depth : 16 bits
Compression mode : Lossy
Stream size : 366 MiB (9%)
Title : Авторский Е.Рудой
Language : Russian
Default : No
Forced : No
Audio #5
ID : 6
Format : AC-3
Format/Info : Audio Coding 3
Mode extension : CM (complete main)
Format settings, Endianness : Big
Codec ID : A_AC3
Duration : 1h 54mn
Bit rate mode : Constant
Bit rate : 192 Kbps
Channel(s) : 2 channels
Channel positions : Front: L R
Sampling rate : 48.0 KHz
Bit depth : 16 bits
Compression mode : Lossy
Delay relative to video : 200ms
Stream size : 157 MiB (4%)
Title : Дубляж
Language : Russian
Default : No
Forced : No
Text #1
ID : 7
Format : UTF-8
Codec ID : S_TEXT/UTF8
Codec ID/Info : UTF-8 Plain Text
Language : Russian
Default : Yes
Forced : No
Text #2
ID : 8
Format : UTF-8
Codec ID : S_TEXT/UTF8
Codec ID/Info : UTF-8 Plain Text
Language : Russian
Default : No
Forced : No
Menu
00:00:00.000 : :Chapter 01
00:01:48.357 : :Chapter 02
00:07:32.993 : :Chapter 03
00:10:48.481 : :Chapter 04
00:16:14.390 : :Chapter 05
00:19:42.222 : :Chapter 06
00:24:07.487 : :Chapter 07
00:32:24.859 : :Chapter 08
00:38:02.862 : :Chapter 09
00:42:50.693 : :Chapter 10
00:48:04.965 : :Chapter 11
00:54:59.546 : :Chapter 12
00:59:00.954 : :Chapter 13
01:04:43.421 : :Chapter 14
01:10:42.821 : :Chapter 15
01:18:28.412 : :Chapter 16
01:25:08.603 : :Chapter 17
01:32:22.912 : :Chapter 18
01:41:18.238 : :Chapter 19
01:45:21.689 : :Chapter 20
01:49:11.294 : :Chapter 21
01:54:20.770 : :Chapter 22

Скриншоты

Сейчас вы смотрите Шанхайские рыцари / Shanghai Knights (2003) BDRip-AVC от FAGOT100 | D, P, A,не забываем оставлять комментарии!
Шанхайские рыцари / Shanghai Knights (2003) BDRip-AVC от FAGOT100 | D, P, A [mytorrnado.ru].t408.torrent 
Torrent: Registered [ 2015-11-07 17:26 ] · E0296FC9C6DB2284CB2063B07136558BF9F6C937 Google it!

Download .torrent

20 KB

Status: checked
Completed: 26 times
Тип торрента: Публичный  - Seed: 38;  Leeh: 50    
Size: 3.88 GB
Поделиться:
FAQ:
 
Как качать?
Как качать?
X
Скачайте торрент и откройте его в своем клиенте
uTorrent

скачать программу,
дождитесь окончания загрузки.
Если торрент закрыт? Инстркуция.
* Как смотреть?
Как смотреть?
X

Для работы Magic Player
Вам необходимо установить
Ace Stream P2P Multimedia Plug-in

Установить

Для работы Magic Player Вам необходимо включить
Ace Stream P2P Multimedia Plug-in

Инструкция
terms.php
Похожие темы




Запрещено категорически:
» Развязывать разборки (для этого есть ЛС)
» Оставлять комментарии, не относящиеся к содержанию материала.
» Добавлять спам, рекламу флуд..
К спаму относится:
1. Реклама любого направления.
2. Ссылки на сторонние ресурсы рекламного характера.
3. Ссылки на ресурсы порнографического направления.
4. Сылки на блоги и им подбным контeнтам.
» Запрещено оскорбление администрации, модераторов и пользователей.
» Часто писать с вкл. Caps Lock
»За нарушение правил бан или отключение без объяснений.
Уважайте чужой труд!

Правила могут дополняться и изменяться. С уважением Администрация.
[Profile] [PM]
Display posts    
Reply to topic

Current time is: 24-Jul 09:36

All times are UTC + 5



You cannot post new topics in this forum
You cannot reply to topics in this forum
You cannot edit your posts in this forum
You cannot delete your posts in this forum
You cannot vote in polls in this forum
You cannot attach files in this forum
You can download files in this forum










!ATTENTION!
The site does not give electronic versions of products, and is engaged only in a collecting and cataloguing of the references sent and published at a forum by our readers. If you are the legal owner of any submitted material and do not wish that the reference to it was in our catalogue, contact us and we shall immediately remove her. Files for an exchange on tracker are given by users of a site, and the administration does not bear the responsibility for their maintenance. The request to not fill in the files protected by copyrights, and also files of the illegal maintenance!