Боец / The Fighter (2010) BDRip 720p от NNNB | D,A

DL-List and Torrent activity [Update ]
Size:  9.94 GB   |    Registered:  5 years 8 months   |    Completed:  26 times
Seeders:  77  [  0 KB/s  ]   Leechers:  66  [  0 KB/s  ]  
 
     
 
 
Author Message

Иваныч ®

Gender: Male

Longevity: 5 years 8 months

Posts: 8203

Наличие запрета:


Карма  175 

Location: Россия,Курган



: 19 ()

Активный релизер  (100 релизов) (1) Активный релизер  (150 релизов) (1) Активный релизер  (250 и более релизов) (1) Активному релизеру (5000 раздач) (1)
Активный релизер  (50 релизов) (1) Активный релизер  (1000 релизов) (1) Помощь (1) Активный релизер  (200 релизов) (1)
От администрации (1) Активный релизер (500 релизов) (1) Техпддержка (1) За внесенный вклад в развитие сайта (1)

Post 07-Nov-2015 17:37

[Quote]

Боец / The Fighter
«Фильм основан на реальных событиях»
Русское название: Боец
Оригинальное название: The Fighter
Год выпуска: 2010
Жанр: драма, биография, спорт
Выпущено: США
Режиссер: Дэвид О. Расселл
В ролях: Марк Уолберг , Кристиан Бэйл , Эми Адамс , Мелисса Лео , Джек МакГи , Мики О’Кифи , Мелисса МакМикин , Бьянка Хантер , Эрика МакДермотт , Джилл Квигг , Дендри Тейлор , Кейт Б. О’Брайэн
Перевод: Дублированный, Авторский (одноголосый)

Сюжет фильма:
Невероятная, но реальная история пути к званию чемпиона мира боксера Микки Уорда по кличке «Ирландец». Восхождение Уорда было похоже на восхождение легендарного Рокки. Парень из народа, между боями он трудился на дорожных работах.
Пережив череду неудач и поражений, Микки сумел снова вернуться на ринг, когда его тренером стал сводный брат Дикки Эклунд, бывший боксер, карьера которого оборвалась из-за пристрастия к наркотикам. Помощь брата, любовь официантки Шарлин, забота матери и несгибаемая воля к победе позволили Уорду взойти на мировой пьедестал...

Качество: BDRip 720p
Формат: AVC (библиотека кодирования x.264)
Контейнер (Расширение): MKV
Видео: 1280x534, 8854 Кбит/сек, 23,976 кадр/сек, 0,540 Бит/[Пиксели*Кадры]
Аудио №1: русский / AC3 / 5.1 / 48 kHz / 640 kbps / 16 bit |Дублированный|
Аудио №2: русский / AC3 / 5.1 / 48 kHz / 640 kbps / 16 bit |Авторский, Визгунов|
Аудио №3: русский / AC3 / 5.1 / 48 kHz / 640 kbps / 16 bit |Авторский, Строев|
Аудио №4: русский / AC3 / 5.1 / 48 kHz / 640 kbps / 16 bit |Авторский, Назаров|
Аудио №5: английский / AC3 / 5.1 / 48 kHz / 640 kbps /
Субтитры: русские, английские
Навигация по главам(Чаптеры): есть
Продолжительность: 01:55:38
Автор рипа: Сообщество:

MediaInfo

Format : Matroska
Format version : Version 2
File size : 9.94 GiB
Duration : 1h 55mn
Overall bit rate : 12.3 Mbps
Movie name : The Fighter.(2010).BDRip.720p.[denis100]
Encoded date : UTC 2015-11-07 08:07:12
Writing application : mkvmerge v5.8.0 ('No Sleep / Pillow') built on Sep 2 2012 15:37:04
Writing library : libebml v1.2.3 + libmatroska v1.3.0
Video
ID : 1
Format : AVC
Format/Info : Advanced Video Codec
Format profile : High@L4.1
Format settings, CABAC : Yes
Format settings, ReFrames : 11 frames
Codec ID : V_MPEG4/ISO/AVC
Duration : 1h 55mn
Bit rate : 8 855 Kbps
Width : 1 280 pixels
Height : 534 pixels
Display aspect ratio : 2.40:1
Frame rate : 23.976 fps
Color space : YUV
Chroma subsampling : 4:2:0
Bit depth : 8 bits
Scan type : Progressive
Bits/(Pixel*Frame) : 0.540
Stream size : 7.15 GiB (72%)
Title : The Fighter.(2010).BDRip.720p.[denis100].NNNB
Writing library : x264 core 148 r2597 e86f3a1
Encoding settings : cabac=1 / ref=11 / deblock=1:-3:-3 / analyse=0x3:0x133 / me=umh / subme=11 / psy=1 / psy_rd=1.00:0.05 / mixed_ref=1 / me_range=48 / chroma_me=1 / trellis=2 / 8x8dct=1 / cqm=0 / deadzone=21,11 / fast_pskip=0 / chroma_qp_offset=-3 / threads=6 / lookahead_threads=1 / sliced_threads=0 / nr=0 / decimate=1 / interlaced=0 / bluray_compat=0 / constrained_intra=0 / bframes=12 / b_pyramid=2 / b_adapt=2 / b_bias=0 / direct=3 / weightb=1 / open_gop=0 / weightp=2 / keyint=240 / keyint_min=23 / scenecut=40 / intra_refresh=0 / rc=crf / mbtree=0 / crf=16.9 / qcomp=0.60 / qpmin=0 / qpmax=69 / qpstep=4 / ip_ratio=1.40 / pb_ratio=1.30 / aq=1:0.90
Language : English
Default : Yes
Forced : No
Audio #1
ID : 2
Format : AC-3
Format/Info : Audio Coding 3
Mode extension : CM (complete main)
Codec ID : A_AC3
Duration : 1h 55mn
Bit rate mode : Constant
Bit rate : 640 Kbps
Channel(s) : 6 channels
Channel positions : Front: L C R, Side: L R, LFE
Sampling rate : 48.0 KHz
Bit depth : 16 bits
Compression mode : Lossy
Stream size : 529 MiB (5%)
Title : Дублированный
Language : Russian
Default : Yes
Forced : No
Audio #2
ID : 3
Format : AC-3
Format/Info : Audio Coding 3
Mode extension : CM (complete main)
Codec ID : A_AC3
Duration : 1h 55mn
Bit rate mode : Constant
Bit rate : 640 Kbps
Channel(s) : 6 channels
Channel positions : Front: L C R, Side: L R, LFE
Sampling rate : 48.0 KHz
Bit depth : 16 bits
Compression mode : Lossy
Stream size : 529 MiB (5%)
Title : Авторский, С. Визгунов
Language : Russian
Default : No
Forced : No
Audio #3
ID : 4
Format : AC-3
Format/Info : Audio Coding 3
Mode extension : CM (complete main)
Codec ID : A_AC3
Duration : 1h 55mn
Bit rate mode : Constant
Bit rate : 640 Kbps
Channel(s) : 6 channels
Channel positions : Front: L C R, Side: L R, LFE
Sampling rate : 48.0 KHz
Bit depth : 16 bits
Compression mode : Lossy
Stream size : 529 MiB (5%)
Title : Авторский, Строев
Language : Russian
Default : No
Forced : No
Audio #4
ID : 5
Format : AC-3
Format/Info : Audio Coding 3
Mode extension : CM (complete main)
Codec ID : A_AC3
Duration : 1h 55mn
Bit rate mode : Constant
Bit rate : 640 Kbps
Channel(s) : 6 channels
Channel positions : Front: L C R, Side: L R, LFE
Sampling rate : 48.0 KHz
Bit depth : 16 bits
Compression mode : Lossy
Stream size : 529 MiB (5%)
Title : Авторский, Назаров
Language : Russian
Default : No
Forced : No
Audio #5
ID : 6
Format : AC-3
Format/Info : Audio Coding 3
Mode extension : CM (complete main)
Codec ID : A_AC3
Duration : 1h 55mn
Bit rate mode : Constant
Bit rate : 640 Kbps
Channel(s) : 6 channels
Channel positions : Front: L C R, Side: L R, LFE
Sampling rate : 48.0 KHz
Bit depth : 16 bits
Compression mode : Lossy
Stream size : 529 MiB (5%)
Language : English
Default : No
Forced : No
Text #1
ID : 7
Format : UTF-8
Codec ID : S_TEXT/UTF8
Codec ID/Info : UTF-8 Plain Text
Language : Russian
Default : No
Forced : No
Text #2
ID : 8
Format : UTF-8
Codec ID : S_TEXT/UTF8
Codec ID/Info : UTF-8 Plain Text
Language : English
Default : No
Forced : No
Menu
00:00:00.000 : en:00:00:00.000
00:07:11.181 : en:00:07:11.181
00:16:34.202 : en:00:16:34.202
00:22:32.351 : en:00:22:32.351
00:28:34.755 : en:00:28:34.755
00:36:20.678 : en:00:36:20.678
00:43:16.803 : en:00:43:16.803
00:51:54.945 : en:00:51:54.945
01:00:48.144 : en:01:00:48.144
01:07:08.274 : en:01:07:08.274
01:13:04.463 : en:01:13:04.463
01:20:43.505 : en:01:20:43.505
01:25:03.890 : en:01:25:03.890
01:33:54.045 : en:01:33:54.045
01:40:13.758 : en:01:40:13.758
01:50:18.529 : en:01:50:18.529
01:55:38.265 : en:01:55:38.265

x264

x264 [info]: frame I:1013 Avg QP:16.54 size:134693
x264 [info]: frame P:33344 Avg QP:17.92 size: 71571
x264 [info]: frame B:132001 Avg QP:19.98 size: 40654

Скриншоты

Сейчас вы смотрите Боец / The Fighter (2010) BDRip 720p от NNNB | D,A,не забываем оставлять комментарии!
Боец / The Fighter (2010) BDRip 720p от NNNB | D,A [mytorrnado.ru].t414.torrent 
Torrent: Registered [ 2015-11-07 17:37 ] · 24ABDF7EF4F3DB0545B99D0488816A56D4011D76 Google it!

Download .torrent

50 KB

Status: checked
Completed: 26 times
Тип торрента: Публичный  - Seed: 77;  Leeh: 66    
Size: 9.94 GB
Поделиться:
FAQ:
 
Как качать?
Как качать?
X
Скачайте торрент и откройте его в своем клиенте
uTorrent

скачать программу,
дождитесь окончания загрузки.
Если торрент закрыт? Инстркуция.
* Как смотреть?
Как смотреть?
X

Для работы Magic Player
Вам необходимо установить
Ace Stream P2P Multimedia Plug-in

Установить

Для работы Magic Player Вам необходимо включить
Ace Stream P2P Multimedia Plug-in

Инструкция
terms.php
Похожие темы




Запрещено категорически:
» Развязывать разборки (для этого есть ЛС)
» Оставлять комментарии, не относящиеся к содержанию материала.
» Добавлять спам, рекламу флуд..
К спаму относится:
1. Реклама любого направления.
2. Ссылки на сторонние ресурсы рекламного характера.
3. Ссылки на ресурсы порнографического направления.
4. Сылки на блоги и им подбным контeнтам.
» Запрещено оскорбление администрации, модераторов и пользователей.
» Часто писать с вкл. Caps Lock
»За нарушение правил бан или отключение без объяснений.
Уважайте чужой труд!

Правила могут дополняться и изменяться. С уважением Администрация.
[Profile] [PM]
Display posts    
Reply to topic

Current time is: 24-Jul 17:10

All times are UTC + 5



You cannot post new topics in this forum
You cannot reply to topics in this forum
You cannot edit your posts in this forum
You cannot delete your posts in this forum
You cannot vote in polls in this forum
You cannot attach files in this forum
You can download files in this forum










!ATTENTION!
The site does not give electronic versions of products, and is engaged only in a collecting and cataloguing of the references sent and published at a forum by our readers. If you are the legal owner of any submitted material and do not wish that the reference to it was in our catalogue, contact us and we shall immediately remove her. Files for an exchange on tracker are given by users of a site, and the administration does not bear the responsibility for their maintenance. The request to not fill in the files protected by copyrights, and also files of the illegal maintenance!