Эксперимент доктора Абста (1968) DVDRip от New-Team

DL-List and Torrent activity [Update ]
Size:  745 MB   |    Registered:  5 years 8 months   |    Completed:  36 times
Seeders:  36  [  0 KB/s  ]   Leechers:  37  [  0 KB/s  ]  
 
     
 
 
Author Message

Иваныч ®

Gender: Male

Longevity: 5 years 8 months

Posts: 8199

Наличие запрета:


Карма  175 

Location: Россия,Курган



: 19 ()

Активный релизер  (2000 релизов) (1) Техпддержка (1) Активный релизер  (200 релизов) (1) Активный релизер  (250 и более релизов) (1)
Реализация решений (1) За внесенный вклад в развитие сайта (1) Дизайн (1) Активный релизер  (3000 релизов) (1)
Активисту (1) Активный релизер  (50 релизов) (1) Активный релизер  (150 релизов) (1) Активному релизеру (5000 раздач) (1)

Post 07-Nov-2015 20:08

[Quote]

Страна: СССР
Производство: К/ст им. Довженко
Жанр: боевик, приключения, военный
Год выпуска: 1968
Продолжительность: 01:24:06
Перевод: Не требуется
Cубтитры: нет
Оригинальная аудиодорожка: русский
Режиссер: Антон Тимонишин
В ролях:
Сергей Десницкий, Лаймонас Норейка, Жанна Владимирская, Геннадий Воропаев, Улдис Пуцитис, Витаутас Томкус, Вячеслав Воронин, Пеэтер Кард, Олев Эскола, Лесь Сердюк, Евгений Весник, Галикс Колчицкий, Сергей Сибель...
Полный список актёров
Описание:
Время действия — Великая Отечественная война. Советский моряк Карцов, военврач, после гибели крейсера попадает на тайную немецкую базу пловцов-подводников в шхерах у берегов союзников. Там он вступает в единоборство с матерым фашистским разведчиком, врачом-экспериментатором и главой школы подводников, Артуром Абстом, превращающим захваченные экипажи в группу безвольных смертников-торпедистов, слепо выполняющих его приказания.- -Источник: DVD5 R5
Качество видео: DVDRip
Формат видео: AVI
Видео: 720x384 (1,85:1), 25 fps, XviD ~ 1037 kbps avg, 0.150 bit/pixel
Аудио: 48 kHz, Dolby Digital AC3 2.0, 192 kbps
Раздача от:

MediaInfo

Общее
Полное имя : Yeksperiment.doktora.Absta.1968.DVDRip_[New-team]_by_AVP_Studio.avi
Формат : AVI
Формат/Информация : Audio Video Interleave
Размер файла : 745 Мбайт
Продолжительность : 1 ч. 24 м.
Общий поток : 1239 Кбит/сек
Программа кодирования : VirtualDubMod 1.5.10.3 | www.virtualdub-fr.org || (build 2550/release)
Библиотека кодирования : VirtualDubMod build 2550/release
Видео
Идентификатор : 0
Формат : MPEG-4 Visual
Профиль формата : Advanced Simple@L5
Параметр BVOP формата : 1
Параметр QPel формата : Нет
Параметр GMC формата : Без точки перехода
Параметр матрицы формата : Выборочная
Идентификатор кодека : XVID
Идентификатор кодека/Подсказка : XviD
Продолжительность : 1 ч. 24 м.
Битрейт : 1037 Кбит/сек
Ширина : 720 пикселей
Высота : 384 пикселя
Соотношение сторон : 1,85:1
Частота кадров : 25,000 кадров/сек
Цветовое пространство : YUV
Субдискретизация насыщенности : 4:2:0
Битовая глубина : 8 бит
Тип развёртки : Прогрессивная
Метод сжатия : С потерями
Бит/(Пиксели*Кадры) : 0.150
Размер потока : 624 Мбайт (84%)
Библиотека кодирования : XviD 73
Аудио
Идентификатор : 1
Формат : AC-3
Формат/Информация : Audio Coding 3
Расширение режима : CM (complete main)
Параметр Endianness формата : Big
Идентификатор кодека : 2000
Продолжительность : 1 ч. 24 м.
Вид битрейта : Постоянный
Битрейт : 192 Кбит/сек
Каналы : 2 канала
Расположение каналов : Front: L R
Частота : 48,0 КГц
Метод сжатия : С потерями
Размер потока : 115 Мбайт (16%)
Выравнивание : Разделение по промежуткам
Продолжительность промежутка : 40 мс. (1,00 видеокадр)
Время предзагрузки промежутка : 500 мс

Скриншоты

Сейчас вы смотрите Эксперимент доктора Абста (1968) DVDRip от New-Team,не забываем оставлять комментарии!
Эксперимент доктора Абста (1968) DVDRip от New-Team [mytorrnado.ru].t426.torrent 
Torrent: Registered [ 2015-11-07 20:08 ] · 13C0A8306B0FFA67FB8D2D2FBF58F33B6C9A889F Google it!

Download .torrent

16 KB

Status: checked
Completed: 36 times
Тип торрента: Публичный  - Seed: 36;  Leeh: 37    
Size: 745 MB
Поделиться:
FAQ:
 
Как качать?
Как качать?
X
Скачайте торрент и откройте его в своем клиенте
uTorrent

скачать программу,
дождитесь окончания загрузки.
Если торрент закрыт? Инстркуция.
* Как смотреть?
Как смотреть?
X

Для работы Magic Player
Вам необходимо установить
Ace Stream P2P Multimedia Plug-in

Установить

Для работы Magic Player Вам необходимо включить
Ace Stream P2P Multimedia Plug-in

Инструкция
terms.php
Похожие темы




Запрещено категорически:
» Развязывать разборки (для этого есть ЛС)
» Оставлять комментарии, не относящиеся к содержанию материала.
» Добавлять спам, рекламу флуд..
К спаму относится:
1. Реклама любого направления.
2. Ссылки на сторонние ресурсы рекламного характера.
3. Ссылки на ресурсы порнографического направления.
4. Сылки на блоги и им подбным контeнтам.
» Запрещено оскорбление администрации, модераторов и пользователей.
» Часто писать с вкл. Caps Lock
»За нарушение правил бан или отключение без объяснений.
Уважайте чужой труд!

Правила могут дополняться и изменяться. С уважением Администрация.
[Profile] [PM]
Display posts    
Reply to topic

Current time is: 24-Jul 09:16

All times are UTC + 5



You cannot post new topics in this forum
You cannot reply to topics in this forum
You cannot edit your posts in this forum
You cannot delete your posts in this forum
You cannot vote in polls in this forum
You cannot attach files in this forum
You can download files in this forum










!ATTENTION!
The site does not give electronic versions of products, and is engaged only in a collecting and cataloguing of the references sent and published at a forum by our readers. If you are the legal owner of any submitted material and do not wish that the reference to it was in our catalogue, contact us and we shall immediately remove her. Files for an exchange on tracker are given by users of a site, and the administration does not bear the responsibility for their maintenance. The request to not fill in the files protected by copyrights, and also files of the illegal maintenance!