Ласковый май (2009) BDRip | Лицензия

DL-List and Torrent activity [Update ]
Size:  750 MB   |    Registered:  5 years 8 months   |    Completed:  25 times
Seeders:  11  [  0 KB/s  ]   Leechers:  43  [  0 KB/s  ]  
 
     
 
 
Author Message

Иваныч ®

Gender: Male

Longevity: 5 years 8 months

Posts: 8227

Наличие запрета:


Карма  175 

Location: Россия,Курган



: 19 ()

Активисту (1) Активный релизер  (3000 релизов) (1) За внесенный вклад в развитие сайта (1) Реализация решений (1)
Активный релизер  (250 и более релизов) (1) От администрации (1) От администрации (1) Активный релизер  (50 релизов) (1)
Помощь (1) Дизайн (1) Активный релизер  (200 релизов) (1) Активный релизер  (2000 релизов) (1)

Post 08-Nov-2015 01:09

[Quote]


Информация о фильме
Название: Ласковый май
Год выхода: 2009
Жанр: Драма, музыкальный, биография
Режиссёр: Владимир Виноградов
В ролях: Вячеслав Манучаров, Сергей Романович, Дмитрий Блохин, Виктор Вержбицкий, Людмила Зайцева, Раиса Конюхова, Максим Костромыкин, Максим Литовченко, Виктория Матвеева, Инга Оболдина, Марина Орел, Раиса Рязанова, Пётр Скворцов, Владимир Стеклов, Екатерина Федулова, Данила Чванов, Иван Агапов, Екатерина Садовская, Ольга Турутина, Александр Фисенко, Александр Нехороших, Виктор Бунаков
О фильме: В 1985 году в Советском Союзе началась перестройка и появилась группа "Ласковый май". На их концертах были только аншлаги, от неразделённой любви к ним совершались самоубийства. Фигура Михаила Горбачёва меркла в лучах славы создателя "Ласкового мая" - Андрея Разина. Случайно сделанная фотография на пляже, где Андрей Разин, будучи ребенком, запечатлён с семьей Горбачёвых, перевернула его судьбу. Именно с помощью этой фотографии он стал племянником Горбачёва. Он заявил об этом не напрямую - так, намекнул, и ему мгновенно поверили. Функционеры всех рангов действовали без промедления: перед ним распахнулись двери телевидения и радио, советская эстрада легла к его ногам. Разин ездил по всем детским домам Советского Союза в поисках одарённых детей для своих групп-двойников. "Ласковый май" гастролировал одновременно в нескольких городах, давая в день по 5-6 концертов. За все десять лет существования группы не было ни одного не проданного или сданного билета, каждый пятый житель СССР побывал на их концертах. Прошло время, ушёл Горбачёв, развалился Советский Союз, закончилась эпоха "Ласкового мая", но до сих пор, под современные аранжировки их песен, зажигают на дискотеках современные тинэйджеры...

Страна: Россия
Студия: DixiMedia
Продолжительность: 01:54:48
Перевод: Не требуется (оригинальный)
Файл
Формат: avi
Качество: BDRip (Blu-ray)
Видео: XviD, 656х368, 24fps, 777kbps
Аудио: MPEG Layer 3, 2ch, 48000Hz, 128kbps

MediaInfo

General
Complete name : Laskovyi.Mai.2009.O.BDRip.700.CurHaJI.avi
Format : AVI
Format/Info : Audio Video Interleave
File size : 750 MiB
Duration : 1h 54mn
Overall bit rate : 913 Kbps
Movie name : Laskovyi.Mai.2009.O.BDRip.700.CurHaJI
Writing application : Lavf53.13.0
Writing library : VirtualDub build 35491/release
Video
ID : 0
Format : MPEG-4 Visual
Format profile : Advanced Simple@L5
Format settings, BVOP : 2
Format settings, QPel : No
Format settings, GMC : No warppoints
Format settings, Matrix : Custom
Codec ID : XVID
Codec ID/Hint : XviD
Duration : 1h 54mn
Bit rate : 777 Kbps
Width : 656 pixels
Height : 368 pixels
Display aspect ratio : 16:9
Frame rate : 24.000 fps
Color space : YUV
Chroma subsampling : 4:2:0
Bit depth : 8 bits
Scan type : Progressive
Compression mode : Lossy
Bits/(Pixel*Frame) : 0.134
Stream size : 637 MiB (85%)
Writing library : XviD 64
Audio
ID : 1
Format : MPEG Audio
Format version : Version 1
Format profile : Layer 3
Codec ID : 55
Codec ID/Hint : MP3
Duration : 1h 54mn
Bit rate mode : Constant
Bit rate : 128 Kbps
Channel(s) : 2 channels
Sampling rate : 48.0 KHz
Compression mode : Lossy
Stream size : 105 MiB (14%)
Alignment : Split accross interleaves
Interleave, duration : 42 ms (1.00 video frame)
Interleave, preload duration : 500 ms
Writing library : L3.99r
Encoding settings : -m s -V 4 -q 2 -lowpass 17 -b 128

Скриншоты

Релиз от:
Сейчас вы смотрите Ласковый май (2009) BDRip | Лицензия,не забываем оставлять комментарии!
Ласковый май (2009) BDRip | Лицензия [mytorrnado.ru].t468.torrent 
Torrent: Registered [ 2015-11-08 01:09 ] · 48BEF6B1CE9B2D3DF320708E67ABE9F6F6DC26C0 Google it!

Download .torrent

15 KB

Status: checked
Completed: 25 times
Тип торрента: Публичный  - Seed: 11;  Leeh: 43    
Size: 750 MB
Поделиться:
FAQ:
 
Как качать?
Как качать?
X
Скачайте торрент и откройте его в своем клиенте
uTorrent

скачать программу,
дождитесь окончания загрузки.
Если торрент закрыт? Инстркуция.
* Как смотреть?
Как смотреть?
X

Для работы Magic Player
Вам необходимо установить
Ace Stream P2P Multimedia Plug-in

Установить

Для работы Magic Player Вам необходимо включить
Ace Stream P2P Multimedia Plug-in

Инструкция
terms.php
Похожие темы




Запрещено категорически:
» Развязывать разборки (для этого есть ЛС)
» Оставлять комментарии, не относящиеся к содержанию материала.
» Добавлять спам, рекламу флуд..
К спаму относится:
1. Реклама любого направления.
2. Ссылки на сторонние ресурсы рекламного характера.
3. Ссылки на ресурсы порнографического направления.
4. Сылки на блоги и им подбным контeнтам.
» Запрещено оскорбление администрации, модераторов и пользователей.
» Часто писать с вкл. Caps Lock
»За нарушение правил бан или отключение без объяснений.
Уважайте чужой труд!

Правила могут дополняться и изменяться. С уважением Администрация.
[Profile] [PM]
Display posts    
Reply to topic

Current time is: 01-Aug 15:22

All times are UTC + 5



You cannot post new topics in this forum
You cannot reply to topics in this forum
You cannot edit your posts in this forum
You cannot delete your posts in this forum
You cannot vote in polls in this forum
You cannot attach files in this forum
You can download files in this forum










!ATTENTION!
The site does not give electronic versions of products, and is engaged only in a collecting and cataloguing of the references sent and published at a forum by our readers. If you are the legal owner of any submitted material and do not wish that the reference to it was in our catalogue, contact us and we shall immediately remove her. Files for an exchange on tracker are given by users of a site, and the administration does not bear the responsibility for their maintenance. The request to not fill in the files protected by copyrights, and also files of the illegal maintenance!