София Прекрасная / Sofia the First [02x01-18, 20-22, 24] (2014) WEBDLRip | D

DL-List and Torrent activity [Update ]
Size:  6.69 GB   |    Registered:  5 years 8 months   |    Completed:  41 times
Seeders:  58  [  0 KB/s  ]   Leechers:  65  [  0 KB/s  ]  
 
     
 
 
Author Message

Иваныч ®

Gender: Male

Longevity: 5 years 9 months

Posts: 8246

Наличие запрета:


Карма  175 

Location: Россия,Курган



: 19 ()

Реализация решений (1) Помощь (1) Активный релизер  (50 релизов) (1) Техпддержка (1)
Активный релизер  (2000 релизов) (1) Активисту (1) От администрации (1) От администрации (1)
Активный релизер  (150 релизов) (1) За внесенный вклад в развитие сайта (1) Активному релизеру (5000 раздач) (1) Активный релизер  (100 релизов) (1)

Post 08-Nov-2015 12:28

[Quote]


Информация о фильме
Название: София Прекрасная
Оригинальное название: Sofia the First
Год выхода: 2014
Жанр: мультфильм, фэнтези, семейный
Режиссер: Джэми Митчелл, Сэм Ригел, Ларри Лэйчлитер
В ролях: Эриэл Винтер, Сара Рамирез, Джим Каммингс, Уэйн Брэди, Дарси Роуз Барнс, Зак Каллисон, Джесс Харнелл, Дженнифер Хейл, Трэвис Виллингхем
О фильме:
Маленькая девочка, которая скоро станет принцессой, снова приглашает в гости своих лучших друзей! Тебя ждут музыка, веселье и волшебство!
Какая девочка не мечтает однажды проснуться принцессой! И прежде чем София сможет занять законное место на троне, вас ждут удивительные приключения: представление в зачарованном цирке, знакомство с ручным дракончиком и полет на волшебном ковре-самолете вместе с Софией и Эмбер! Но когда маленькие верные друзья сбиваются с пути в лазурной вышине, на помощь к ним приходит особый гость - принцесса Жасмин, которая расскажет всем маленьким принцессам, как не бояться приключений, быть сильной и верить в себя. Чудесные песни, незабываемые герои и замечательные сюрпризы.
"София Прекрасная: Как стать принцессой" открывает дверь в дивный мир, полный доброты, взаимовыручки и дружбы!

Список серий:

01. Две принцессы и младенец / Two Princesses and a Baby
02. Волшебный пир / The Enchanted Feast
03. Корона летучих наездников / The Flying Crown
04. Вместе с мамой / Mom's the Word
05. Молчаливый рыцарь / The Silent Knight
06. Экзамен по волшебным наукам / Enchanted Science Fair
07. Король на один день / King for a Day
08. Бойся исполнения желаний / When You Wish Upon a Well
09. Диковинки Гвен / Gizmo Gwen
10. София ужасная / Sofia the Second
11. Волшебные луга / Mystic Meadows
12. Принцессы спасатели / Princesses to the Rescue!
14. Изумрудный ключ / The Emerald Key
15. Пернатые приматы / Scrambled Pets
16. Принцессы на картине / The Princess Stays in the Picture
17. Бэйли-бум / Baileywhoops
18. Заклятие амулета / The Curse of Princess Ivy
20. Песенный фестиваль / The Leafsong Festival
21. Учитель Седрик / Substitute Cedric
22. Соседство с кроликом / Clover Time
24. Повесть о двух командах / A Tale of Two Teams
Официальный сайт
Страна: США
Студия: Disney Television Animation, Walt Disney Productions
Продолжительность: ~00:22:00 серия
Перевод: Дублированный, включая и песни (Невафильм)
Файл
Кодек: XviD / MP3
Качество: WEBDLRip
Видео: MPEG4, XviD, 720x400 (16:9), 23.976 fps, 1 673 Kbps (0.242 bit/pixel)
Звук: MP3, 44.1 KHz, 2 ch, 192 Kbps, CBR

MediaInfo

Complete name : Sofia the First .2014. WEB-DLRip. 2 seasonsS02E01.Two.Princesses.and.a.Baby.dub.avi
Format : AVI
Format/Info : Audio Video Interleave
File size : 303 MiB
Duration : 22mn 35s
Overall bit rate : 1 874 Kbps
Writing application : VirtualDubMod 1.5.10.3 | (build 2550/release)
Writing library : VirtualDubMod build 2550/release
Video
ID : 0
Format : MPEG-4 Visual
Format profile : Advanced Simple@L5
Format settings, BVOP : 1
Format settings, QPel : No
Format settings, GMC : No warppoints
Format settings, Matrix : Default (H.263)
Codec ID : XVID
Codec ID/Hint : XviD
Duration : 22mn 35s
Bit rate : 1 673 Kbps
Width : 720 pixels
Height : 400 pixels
Display aspect ratio : 16:9
Frame rate : 23.976 fps
Color space : YUV
Chroma subsampling : 4:2:0
Bit depth : 8 bits
Scan type : Progressive
Compression mode : Lossy
Bits/(Pixel*Frame) : 0.242
Stream size : 270 MiB (89%)
Writing library : XviD 1.2.1 (UTC 2008-12-04)
Audio
ID : 1
Format : MPEG Audio
Format version : Version 1
Format profile : Layer 3
Codec ID : 55
Codec ID/Hint : MP3
Duration : 22mn 35s
Bit rate mode : Constant
Bit rate : 192 Kbps
Channel(s) : 2 channels
Sampling rate : 44.1 KHz
Compression mode : Lossy
Stream size : 31.0 MiB (10%)
Alignment : Split accross interleaves
Interleave, duration : 42 ms (1.00 video frame)
Interleave, preload duration : 500 ms
Сейчас вы смотрите София Прекрасная / Sofia the First [02x01-18, 20-22, 24] (2014) WEBDLRip | D,не забываем оставлять комментарии!
София Прекрасная / Sofia the First [02x01-18, 20-22, 24] (2014) WEBDLRip | D [mytorrnado.ru].t496.torrent 
 GOLD TORRENT! DOWNLOAD TRAFFIC DOES NOT CONSIDER! 
Torrent: Registered [ 2015-11-08 12:28 ] · 7ADF1B4FAD3499110C8EE55E239DBB7ECABCC76B Google it!

Download .torrent

35 KB

Status: checked
Completed: 41 times
Тип торрента: Публичный  - Seed: 58;  Leeh: 65    
Size: 6.69 GB
Поделиться:
FAQ:
 
Как качать?
Как качать?
X
Скачайте торрент и откройте его в своем клиенте
uTorrent

скачать программу,
дождитесь окончания загрузки.
Если торрент закрыт? Инстркуция.
* Как смотреть?
Как смотреть?
X

Для работы Magic Player
Вам необходимо установить
Ace Stream P2P Multimedia Plug-in

Установить

Для работы Magic Player Вам необходимо включить
Ace Stream P2P Multimedia Plug-in

Инструкция
terms.php
Похожие темы




Запрещено категорически:
» Развязывать разборки (для этого есть ЛС)
» Оставлять комментарии, не относящиеся к содержанию материала.
» Добавлять спам, рекламу флуд..
К спаму относится:
1. Реклама любого направления.
2. Ссылки на сторонние ресурсы рекламного характера.
3. Ссылки на ресурсы порнографического направления.
4. Сылки на блоги и им подбным контeнтам.
» Запрещено оскорбление администрации, модераторов и пользователей.
» Часто писать с вкл. Caps Lock
»За нарушение правил бан или отключение без объяснений.
Уважайте чужой труд!

Правила могут дополняться и изменяться. С уважением Администрация.
[Profile] [PM]
Display posts    
Reply to topic

Current time is: 05-Aug 23:46

All times are UTC + 5



You cannot post new topics in this forum
You cannot reply to topics in this forum
You cannot edit your posts in this forum
You cannot delete your posts in this forum
You cannot vote in polls in this forum
You cannot attach files in this forum
You can download files in this forum










!ATTENTION!
The site does not give electronic versions of products, and is engaged only in a collecting and cataloguing of the references sent and published at a forum by our readers. If you are the legal owner of any submitted material and do not wish that the reference to it was in our catalogue, contact us and we shall immediately remove her. Files for an exchange on tracker are given by users of a site, and the administration does not bear the responsibility for their maintenance. The request to not fill in the files protected by copyrights, and also files of the illegal maintenance!