Бэтмен: Начало / Batman Begins (2005) BDRip 720p от NNNB | D,P,P2,A

DL-List and Torrent activity [Update ]
Size:  8.76 GB   |    Registered:  5 years 8 months   |    Completed:  27 times
Seeders:  20  [  0 KB/s  ]   Leechers:  86  [  0 KB/s  ]  
 
     
 
 
Author Message

Иваныч ®

Gender: Male

Longevity: 5 years 8 months

Posts: 8227

Наличие запрета:


Карма  175 

Location: Россия,Курган



: 19 ()

Активный релизер  (3000 релизов) (1) Активный релизер  (250 и более релизов) (1) Активный релизер  (150 релизов) (1) Техпддержка (1)
Реализация решений (1) Активный релизер  (2000 релизов) (1) Дизайн (1) Активному релизеру (5000 раздач) (1)
Активный релизер  (50 релизов) (1) За внесенный вклад в развитие сайта (1) От администрации (1) От администрации (1)

Post 08-Nov-2015 16:30

[Quote]

Бэтмен: Начало / Batman Begins
«Легенда начинается...»
Русское название: Бэтмен: Начало
Оригинальное название: Batman Begins
Год выпуска: 2005
Жанр: боевик, приключения, фантастика, драма
Выпущено: США, Великобритания
Режиссер: Кристофер Нолан
В ролях: Кристиан Бэйл , Кэти Холмс , Майкл Кейн , Киллиан Мёрфи , Том Уилкинсон , Лиам Нисон , Кен Ватанабе , Гари Олдман , Морган Фриман , Рутгер Хауэр , Раде Шербеджия , Марк Бун Джуниор
Перевод: Дублированный, Профессиональный (многоголосый закадровый), (двухголосый закадровый), Авторский

Сюжет фильма:
В детстве юный наследник огромного состояния Брюс Уэйн оказался свидетелем убийства своих родителей, и тогда он решил бороться с преступностью. Спустя годы он отправляется в путешествие по миру, чтобы найти способ восстановить справедливость. Обучение у мудрого наставника боевым искусствам дает ему силу и смелость. Вернувшись в родной город, Уэйн становится Бэтменом и ведет борьбу со злом.

Качество: BDRip 720p
Формат: AVC (библиотека кодирования x.264)
Контейнер (Расширение): MKV
Видео: 1280x534, 4469 Кбит/сек, 23,976 кадр/сек, 0,273 Бит/[Пиксели*Кадры]
Аудио №1: русский / AC3 / 5.1 / 48 kHz / 640 kbps / 16 bit |Дублированный|
Аудио №2: русский / AC3 / 5.1 / 48 kHz / 640 kbps / 16 bit |Профессиональный (многоголосый закадровый), Киномания|
Аудио №3: русский / AC3 / 5.1 / 48 kHz / 640 kbps / 16 bit |Профессиональный (двухголосый закадровый), Tycoon|
Аудио №4: русский / AC3 / 5.1 / 48 kHz / 640 kbps / 16 bit |Профессиональный (двухголосый закадровый), Супербит|
Аудио №5: русский / AC3 / 5.1 / 48 kHz / 640 kbps / 16 bit |Авторский, А. Гаврилов|
Аудио №6: русский / AC3 / 5.1 / 48 kHz / 640 kbps / 16 bit |Авторский, В. Королев|
Аудио №7: английский / AC3 / 5.1 / 48 kHz / 640 kbps /
Субтитры: русские (CEE), русские (Tycoon), русские (Voronin), английские, английские (SDH)
Навигация по главам(Чаптеры): есть
Продолжительность: 02:20:03
Автор рипа: Сообщество:

MediaInfo

Format : Matroska
Format version : Version 2
File size : 8.76 GiB
Duration : 2h 20mn
Overall bit rate : 8 951 Kbps
Movie name : Batman Begins.(2005).BDRip.720p.[denis100]
Encoded date : UTC 2015-11-08 08:56:21
Writing application : mkvmerge v5.8.0 ('No Sleep / Pillow') built on Sep 2 2012 15:37:04
Writing library : libebml v1.2.3 + libmatroska v1.3.0
Video
ID : 1
Format : AVC
Format/Info : Advanced Video Codec
Format profile : High@L4.1
Format settings, CABAC : Yes
Format settings, ReFrames : 11 frames
Codec ID : V_MPEG4/ISO/AVC
Duration : 2h 20mn
Bit rate : 4 469 Kbps
Width : 1 280 pixels
Height : 534 pixels
Display aspect ratio : 2.40:1
Frame rate : 23.976 fps
Color space : YUV
Chroma subsampling : 4:2:0
Bit depth : 8 bits
Scan type : Progressive
Bits/(Pixel*Frame) : 0.273
Stream size : 4.20 GiB (48%)
Title : Batman Begins.(2005).BDRip.720p.[denis100].NNNB
Writing library : x264 core 148 r2597 e86f3a1
Encoding settings : cabac=1 / ref=11 / deblock=1:-3:-3 / analyse=0x3:0x133 / me=umh / subme=11 / psy=1 / psy_rd=1.00:0.00 / mixed_ref=1 / me_range=48 / chroma_me=1 / trellis=2 / 8x8dct=1 / cqm=0 / deadzone=21,11 / fast_pskip=0 / chroma_qp_offset=-2 / threads=6 / lookahead_threads=1 / sliced_threads=0 / nr=0 / decimate=1 / interlaced=0 / bluray_compat=0 / constrained_intra=0 / bframes=12 / b_pyramid=2 / b_adapt=2 / b_bias=0 / direct=3 / weightb=1 / open_gop=0 / weightp=2 / keyint=240 / keyint_min=23 / scenecut=40 / intra_refresh=0 / rc=2pass / mbtree=0 / bitrate=4469 / ratetol=1.0 / qcomp=0.60 / qpmin=0 / qpmax=69 / qpstep=4 / cplxblur=20.0 / qblur=0.5 / ip_ratio=1.40 / pb_ratio=1.30 / aq=1:1.00
Language : English
Default : Yes
Forced : No
Audio #1
ID : 2
Format : AC-3
Format/Info : Audio Coding 3
Mode extension : CM (complete main)
Codec ID : A_AC3
Duration : 2h 20mn
Bit rate mode : Constant
Bit rate : 640 Kbps
Channel(s) : 6 channels
Channel positions : Front: L C R, Side: L R, LFE
Sampling rate : 48.0 KHz
Bit depth : 16 bits
Compression mode : Lossy
Stream size : 641 MiB (7%)
Title : Дублированный
Language : Russian
Default : Yes
Forced : No
Audio #2
ID : 3
Format : AC-3
Format/Info : Audio Coding 3
Mode extension : CM (complete main)
Codec ID : A_AC3
Duration : 2h 20mn
Bit rate mode : Constant
Bit rate : 640 Kbps
Channel(s) : 6 channels
Channel positions : Front: L C R, Side: L R, LFE
Sampling rate : 48.0 KHz
Bit depth : 16 bits
Compression mode : Lossy
Stream size : 641 MiB (7%)
Title : Профессиональный (многоголосый закадровый), Киномания
Language : Russian
Default : No
Forced : No
Audio #3
ID : 4
Format : AC-3
Format/Info : Audio Coding 3
Mode extension : CM (complete main)
Codec ID : A_AC3
Duration : 2h 20mn
Bit rate mode : Constant
Bit rate : 640 Kbps
Channel(s) : 6 channels
Channel positions : Front: L C R, Side: L R, LFE
Sampling rate : 48.0 KHz
Bit depth : 16 bits
Compression mode : Lossy
Stream size : 641 MiB (7%)
Title : Профессиональный (двухголосый закадровый), Tycoon
Language : Russian
Default : No
Forced : No
Audio #4
ID : 5
Format : AC-3
Format/Info : Audio Coding 3
Mode extension : CM (complete main)
Codec ID : A_AC3
Duration : 2h 20mn
Bit rate mode : Constant
Bit rate : 640 Kbps
Channel(s) : 6 channels
Channel positions : Front: L C R, Side: L R, LFE
Sampling rate : 48.0 KHz
Bit depth : 16 bits
Compression mode : Lossy
Stream size : 641 MiB (7%)
Title : Профессиональный (двухголосый закадровый), Супербит
Language : Russian
Default : No
Forced : No
Audio #5
ID : 6
Format : AC-3
Format/Info : Audio Coding 3
Mode extension : CM (complete main)
Codec ID : A_AC3
Duration : 2h 20mn
Bit rate mode : Constant
Bit rate : 640 Kbps
Channel(s) : 6 channels
Channel positions : Front: L C R, Side: L R, LFE
Sampling rate : 48.0 KHz
Bit depth : 16 bits
Compression mode : Lossy
Stream size : 641 MiB (7%)
Title : Авторский, А. Гаврилов
Language : Russian
Default : No
Forced : No
Audio #6
ID : 7
Format : AC-3
Format/Info : Audio Coding 3
Mode extension : CM (complete main)
Codec ID : A_AC3
Duration : 2h 20mn
Bit rate mode : Constant
Bit rate : 640 Kbps
Channel(s) : 6 channels
Channel positions : Front: L C R, Side: L R, LFE
Sampling rate : 48.0 KHz
Bit depth : 16 bits
Compression mode : Lossy
Stream size : 641 MiB (7%)
Title : Авторский, В. Королев
Language : Russian
Default : No
Forced : No
Audio #7
ID : 8
Format : AC-3
Format/Info : Audio Coding 3
Mode extension : CM (complete main)
Codec ID : A_AC3
Duration : 2h 20mn
Bit rate mode : Constant
Bit rate : 640 Kbps
Channel(s) : 6 channels
Channel positions : Front: L C R, Side: L R, LFE
Sampling rate : 48.0 KHz
Bit depth : 16 bits
Compression mode : Lossy
Stream size : 641 MiB (7%)
Language : English
Default : No
Forced : No
Text #1
ID : 9
Format : UTF-8
Codec ID : S_TEXT/UTF8
Codec ID/Info : UTF-8 Plain Text
Title : CEE
Language : Russian
Default : No
Forced : No
Text #2
ID : 10
Format : UTF-8
Codec ID : S_TEXT/UTF8
Codec ID/Info : UTF-8 Plain Text
Title : Tycoon
Language : Russian
Default : No
Forced : No
Text #3
ID : 11
Format : UTF-8
Codec ID : S_TEXT/UTF8
Codec ID/Info : UTF-8 Plain Text
Title : Voronin
Language : Russian
Default : No
Forced : No
Text #4
ID : 12
Format : UTF-8
Codec ID : S_TEXT/UTF8
Codec ID/Info : UTF-8 Plain Text
Language : English
Default : No
Forced : No
Text #5
ID : 13
Format : UTF-8
Codec ID : S_TEXT/UTF8
Codec ID/Info : UTF-8 Plain Text
Title : SDH
Language : English
Default : No
Forced : No
Menu
00:00:00.000 : en:00:00:00.000
00:03:39.219 : en:00:03:39.219
00:07:31.117 : en:00:07:31.117
00:11:34.027 : en:00:11:34.027
00:16:15.641 : en:00:16:15.641
00:19:44.350 : en:00:19:44.350
00:24:19.291 : en:00:24:19.291
00:28:24.703 : en:00:28:24.703
00:31:25.383 : en:00:31:25.383
00:35:53.818 : en:00:35:53.818
00:38:24.636 : en:00:38:24.636
00:41:14.639 : en:00:41:14.639
00:43:08.252 : en:00:43:08.252
00:46:57.982 : en:00:46:57.982
00:49:43.981 : en:00:49:43.981
00:53:26.203 : en:00:53:26.203
00:55:55.018 : en:00:55:55.018
00:58:02.145 : en:00:58:02.145
01:03:31.808 : en:01:03:31.808
01:05:53.116 : en:01:05:53.116
01:08:38.781 : en:01:08:38.781
01:11:25.781 : en:01:11:25.781
01:13:19.562 : en:01:13:19.562
01:16:16.238 : en:01:16:16.238
01:19:50.285 : en:01:19:50.285
01:23:54.363 : en:01:23:54.363
01:29:02.671 : en:01:29:02.671
01:32:36.718 : en:01:32:36.718
01:37:49.030 : en:01:37:49.030
01:40:33.694 : en:01:40:33.694
01:45:08.969 : en:01:45:08.969
01:49:32.065 : en:01:49:32.065
01:51:29.182 : en:01:51:29.182
01:54:49.049 : en:01:54:49.049
01:58:11.084 : en:01:58:11.084
02:01:54.974 : en:02:01:54.974
02:05:01.160 : en:02:05:01.160
02:06:06.893 : en:02:06:06.893
02:09:18.417 : en:02:09:18.417
02:10:57.016 : en:02:10:57.016

x264

x264 [info]: frame I:1765 Avg QP:12.45 size: 95684
x264 [info]: frame P:50710 Avg QP:14.75 size: 38355
x264 [info]: frame B:148994 Avg QP:16.30 size: 17302
x264 [info]: consecutive B-frames: 5.2% 5.6% 12.8% 17.1% 14.1% 28.1% 5.1% 5.4% 1.6% 2.0% 1.0% 1.8% 0.4%

Скриншоты

Сейчас вы смотрите Бэтмен: Начало / Batman Begins (2005) BDRip 720p от NNNB | D,P,P2,A,не забываем оставлять комментарии!
Бэтмен: Начало / Batman Begins (2005) BDRip 720p от NNNB | D,P,P2,A [mytorrnado.ru].t529.torrent 
 GOLD TORRENT! DOWNLOAD TRAFFIC DOES NOT CONSIDER! 
Torrent: Registered [ 2015-11-08 16:30 ] · 843854248E1D83167D5AE8454ACADB558EA28294 Google it!

Download .torrent

45 KB

Status: checked
Completed: 27 times
Тип торрента: Публичный  - Seed: 20;  Leeh: 86    
Size: 8.76 GB
Поделиться:
FAQ:
 
Как качать?
Как качать?
X
Скачайте торрент и откройте его в своем клиенте
uTorrent

скачать программу,
дождитесь окончания загрузки.
Если торрент закрыт? Инстркуция.
* Как смотреть?
Как смотреть?
X

Для работы Magic Player
Вам необходимо установить
Ace Stream P2P Multimedia Plug-in

Установить

Для работы Magic Player Вам необходимо включить
Ace Stream P2P Multimedia Plug-in

Инструкция
terms.php
Похожие темы




Запрещено категорически:
» Развязывать разборки (для этого есть ЛС)
» Оставлять комментарии, не относящиеся к содержанию материала.
» Добавлять спам, рекламу флуд..
К спаму относится:
1. Реклама любого направления.
2. Ссылки на сторонние ресурсы рекламного характера.
3. Ссылки на ресурсы порнографического направления.
4. Сылки на блоги и им подбным контeнтам.
» Запрещено оскорбление администрации, модераторов и пользователей.
» Часто писать с вкл. Caps Lock
»За нарушение правил бан или отключение без объяснений.
Уважайте чужой труд!

Правила могут дополняться и изменяться. С уважением Администрация.
[Profile] [PM]
Display posts    
Reply to topic

Current time is: 01-Aug 16:22

All times are UTC + 5



You cannot post new topics in this forum
You cannot reply to topics in this forum
You cannot edit your posts in this forum
You cannot delete your posts in this forum
You cannot vote in polls in this forum
You cannot attach files in this forum
You can download files in this forum










!ATTENTION!
The site does not give electronic versions of products, and is engaged only in a collecting and cataloguing of the references sent and published at a forum by our readers. If you are the legal owner of any submitted material and do not wish that the reference to it was in our catalogue, contact us and we shall immediately remove her. Files for an exchange on tracker are given by users of a site, and the administration does not bear the responsibility for their maintenance. The request to not fill in the files protected by copyrights, and also files of the illegal maintenance!