Три (2015) BDRip 720p | GER Transfer | Лицензия

DL-List and Torrent activity [Update ]
Size:  4.67 GB   |    Registered:  5 years 8 months   |    Completed:  22 times
Seeders:  1  [  0 KB/s  ]   Leechers:  83  [  0 KB/s  ]  
 
     
 
 
 
Author Message

Иваныч ®

Gender: Male

Longevity: 5 years 8 months

Posts: 8203

Наличие запрета:


Карма  175 

Location: Россия,Курган



: 19 ()

За внесенный вклад в развитие сайта (1) Активный релизер (500 релизов) (1) Активному релизеру (5000 раздач) (1) Активный релизер  (3000 релизов) (1)
Активный релизер  (50 релизов) (1) Реализация решений (1) Активный релизер  (1000 релизов) (1) От администрации (1)
Активный релизер  (150 релизов) (1) Помощь (1) Активный релизер  (200 релизов) (1) Активный релизер  (100 релизов) (1)

Post 08-Nov-2015 17:10

[Quote]


Информация о фильме
Название: Три
Год выхода: 2015
Жанр: Ужасы, триллер, драма
Режиссер: Павел Хвалеев
В ролях: Полина Давыдова, Евгений Гагарин, Любовь Игнатушко, Фрэнк Эллрич
О ФИЛЬМЕ
В маленький европейский городок, в котором живут сёстры Айя и Мирра, пришла неизвестная болезнь, которая унесла жизни многих горожан. После смерти мамы заболевает младшая Мирра. Понимая, что традиционная медицина бессильна перед болезнью сестры, Айя обращается за помощью к близкому другу семьи, приходскому священнику отцу Герману. В его доме Айя случайно находит книги далёкие от традиционной религии.
Она узнаёт, что только проникнув в больное подсознание Мирры и отыскав истинную причину её болезни, она получит шанс на спасение сестры. Айя готова пройти страшный ритуал, погрузиться в недра подсознания и встретиться лицом к лицу с обитающими там демонами. Но сможет ли она справиться с собственным страхом, когда узнает все тайны прошлой жизни сестры?

Сценарий: Александра Хвалеева, Олег Мустафин, Евгения Мустафина
Продюсер: Фрэнк Эллрич
Оператор: Игорь Киселёв
Композитор: Moonbeam
Художник: Александра Хвалеева, Олег Мустафин
Монтаж: Павел Хвалеев
Страна: Германия, Россия
Продолжительность: 01:20:25
Перевод: Оригинал
Файл
Качество: BDRip 720p
Видео: MPEG-4 AVC, 6000 Кбит/с, 1280x544
Аудио: Русский (DTS, 2 ch, 1150 Кбит/с), немецкий (DTS, 6 ch, 1509 Кбит/с)
Субтитры: Английские

Скриншоты

MediaInfo

General
Unique ID : 221248439015119599809517611680645764676 (0xA672E63E154FD14F9DAB2A07D6DFD644)
Complete name : D:ВидеоTr1.2015.O.BDRip.720p.mkv
Format : Matroska
Format version : Version 2
File size : 4.67 GiB
Duration : 1h 20mn
Overall bit rate : 8 314 Kbps
Encoded date : UTC 2015-11-08 02:51:27
Writing application : mkvmerge v8.3.0 ('Over the Horizon') 64bit
Writing library : libebml v1.3.1 + libmatroska v1.4.2
DURATION : 01:14:58.208000000
NUMBER_OF_FRAMES : 846
NUMBER_OF_BYTES : 3448685
_STATISTICS_WRITING_APP : mkvmerge v8.3.0 ('Over the Horizon') 64bit
_STATISTICS_WRITING_DATE_UTC : 2015-11-08 02:51:27
_STATISTICS_TAGS : BPS DURATION NUMBER_OF_FRAMES NUMBER_OF_BYTES
Video
ID : 1
Format : AVC
Format/Info : Advanced Video Codec
Format profile : High@L4.1
Format settings, CABAC : Yes
Format settings, ReFrames : 4 frames
Codec ID : V_MPEG4/ISO/AVC
Duration : 1h 20mn
Bit rate : 6 000 Kbps
Width : 1 280 pixels
Height : 544 pixels
Display aspect ratio : 2.35:1
Frame rate mode : Constant
Frame rate : 24.000 fps
Color space : YUV
Chroma subsampling : 4:2:0
Bit depth : 8 bits
Scan type : Progressive
Bits/(Pixel*Frame) : 0.359
Stream size : 3.28 GiB (70%)
Writing library : x264 core 148 r2638 7599210
Encoding settings : cabac=1 / ref=4 / deblock=1:0:0 / analyse=0x3:0x3 / me=dia / subme=1 / psy=1 / psy_rd=1.00:0.00 / mixed_ref=0 / me_range=16 / chroma_me=1 / trellis=0 / 8x8dct=1 / cqm=0 / deadzone=21,11 / fast_pskip=1 / chroma_qp_offset=-2 / threads=17 / lookahead_threads=2 / sliced_threads=0 / nr=0 / decimate=1 / interlaced=0 / bluray_compat=0 / constrained_intra=0 / bframes=1 / b_pyramid=0 / b_adapt=1 / b_bias=0 / direct=1 / weightb=1 / open_gop=0 / weightp=1 / keyint=240 / keyint_min=24 / scenecut=40 / intra_refresh=0 / rc_lookahead=40 / rc=2pass / mbtree=0 / bitrate=6000 / ratetol=1.0 / qcomp=0.60 / qpmin=0 / qpmax=69 / qpstep=4 / cplxblur=20.0 / qblur=0.5 / vbv_maxrate=50000 / vbv_bufsize=62500 / nal_hrd=none / filler=0 / ip_ratio=1.40 / pb_ratio=1.30 / aq=1:1.00
Language : Russian
Default : Yes
Forced : No
Audio #1
ID : 2
Format : DTS
Format/Info : Digital Theater Systems
Mode : 16
Format settings, Endianness : Big
Codec ID : A_DTS
Duration : 1h 20mn
Bit rate mode : Constant
Bit rate : 1 152 Kbps
Channel(s) : 2 channels
Channel positions : Front: L R
Sampling rate : 48.0 KHz
Bit depth : 24 bits
Compression mode : Lossy
Stream size : 663 MiB (14%)
Language : Russian
Default : Yes
Forced : No
Audio #2
ID : 3
Format : DTS
Format/Info : Digital Theater Systems
Mode : 16
Format settings, Endianness : Big
Codec ID : A_DTS
Duration : 1h 20mn
Bit rate mode : Constant
Bit rate : 1 152 Kbps
Channel(s) : 6 channels
Channel positions : Front: L C R, Side: L R, LFE
Sampling rate : 48.0 KHz
Bit depth : 24 bits
Compression mode : Lossy
Stream size : 663 MiB (14%)
Language : German
Default : No
Forced : No
Text
ID : 4
Format : PGS
Muxing mode : zlib
Codec ID : S_HDMV/PGS
Codec ID/Info : The same subtitle format used on BDs/HD-DVDs
Language : English
Default : No
Forced : No
Menu
00:00:00.000 : en:
00:05:22.958 : en:
00:11:29.083 : en:
00:19:20.208 : en:
00:31:55.125 : en:
00:40:51.958 : en:
00:50:59.625 : en:
01:01:12.750 : en:
Сейчас вы смотрите Три (2015) BDRip 720p | GER Transfer | Лицензия,не забываем оставлять комментарии!
Три (2015) BDRip 720p | GER Transfer | Лицензия [mytorrnado.ru].t534.torrent 
Torrent: Registered [ 2015-11-08 17:10 ] · 7DCA36777FBB121B53E11C753C3A0428A0E2E58D Google it!

Download .torrent

24 KB

Status: checked
Completed: 22 times
Тип торрента: Публичный  - Seed: 1;  Leeh: 83    
Size: 4.67 GB
Поделиться:
FAQ:
 
Как качать?
Как качать?
X
Скачайте торрент и откройте его в своем клиенте
uTorrent

скачать программу,
дождитесь окончания загрузки.
Если торрент закрыт? Инстркуция.
* Как смотреть?
Как смотреть?
X

Для работы Magic Player
Вам необходимо установить
Ace Stream P2P Multimedia Plug-in

Установить

Для работы Magic Player Вам необходимо включить
Ace Stream P2P Multimedia Plug-in

Инструкция
terms.php
Похожие темы




Запрещено категорически:
» Развязывать разборки (для этого есть ЛС)
» Оставлять комментарии, не относящиеся к содержанию материала.
» Добавлять спам, рекламу флуд..
К спаму относится:
1. Реклама любого направления.
2. Ссылки на сторонние ресурсы рекламного характера.
3. Ссылки на ресурсы порнографического направления.
4. Сылки на блоги и им подбным контeнтам.
» Запрещено оскорбление администрации, модераторов и пользователей.
» Часто писать с вкл. Caps Lock
»За нарушение правил бан или отключение без объяснений.
Уважайте чужой труд!

Правила могут дополняться и изменяться. С уважением Администрация.
[Profile] [PM]
Display posts    
Reply to topic

Current time is: 24-Jul 17:09

All times are UTC + 5



You cannot post new topics in this forum
You cannot reply to topics in this forum
You cannot edit your posts in this forum
You cannot delete your posts in this forum
You cannot vote in polls in this forum
You cannot attach files in this forum
You can download files in this forum










!ATTENTION!
The site does not give electronic versions of products, and is engaged only in a collecting and cataloguing of the references sent and published at a forum by our readers. If you are the legal owner of any submitted material and do not wish that the reference to it was in our catalogue, contact us and we shall immediately remove her. Files for an exchange on tracker are given by users of a site, and the administration does not bear the responsibility for their maintenance. The request to not fill in the files protected by copyrights, and also files of the illegal maintenance!