(Шансон, Поп) Большая коллекция шансона (Grand Collection) 2001-2013 (65 CD), FLAC (image+.cue), lossless

DL-List and Torrent activity [Update ]
Size:  34.62 GB   |    Registered:  5 years 8 months   |    Completed:  49 times

Seeder not seen: Never

 
     
 
 
 
Author Message

Иваныч ®

Gender: Male

Longevity: 5 years 8 months

Posts: 8203

Наличие запрета:


Карма  175 

Location: Россия,Курган



: 19 ()

Активный релизер  (150 релизов) (1) От администрации (1) Активный релизер  (50 релизов) (1) Активный релизер  (1000 релизов) (1)
Техпддержка (1) Активисту (1) Активный релизер  (250 и более релизов) (1) Активный релизер  (3000 релизов) (1)
Активный релизер  (200 релизов) (1) За внесенный вклад в развитие сайта (1) Дизайн (1) Активный релизер  (100 релизов) (1)

Post 03-Nov-2015 21:56

[Quote]

Большая коллекция шансона-- --Жанр: Шансон
Страна-производитель диска: Россия
Года издания дисков: 2001-2013
Издатель (лейбл): Квадро-Диск / Классик Компани
Аудио кодек: FLAC (*.flac)
Тип рипа: image+.cue
Битрейт аудио: lossless
Продолжительность: Указана к каждому альбому
Источник (релизер): Собственные рипы
Наличие сканов в содержимом раздачи: да
Серия "Grand Collection" - 2001-2013 (67 CD), MP3 (tracks), 320 kbpsВнимание!
Торрент обновлен 14.01.2014

Подробности здесь

Аксенов Виталий

Год издания диска: 26.10.10
Номер по каталогу: GCR 299
Продолжительность: 01:19:58
-01. Подарки (4:38)02. Ждет она меня (4:02)03. Сочи (4:38)04. Поезд (4:11)05. 50-ый скорый (5:15)06. Ремешок (4:29)07. Берега (5:41)08. Дядя Вова (4:48)09. Девочка Брестская (2:53)10. Михалыч (5:02)11. Роща Прибужская (6:23)12. Жаворонок (4:49)13. Золото (3:35)14. Питерский вальс (4:49)15. Вагончик (3:35)16. Возврат (3:12)17. Мама (4:48)18. Прятки-жмурки (3:10)

Лог ЕАС

Exact Audio Copy V1.0 beta 1 from 15. November 2010
Отчёт EAC об извлечении, выполненном 6. декабря 2010, 17:23
Виталий Аксенов / Grand Collection
Дисковод: ASUS DRW-1814BLT Adapter: 2 ID: 0
Режим чтения : ДостоверностьИспользование точного потока : ДаОтключение кэша аудио : ДаИспользование указателей C2 : Нет
Коррекция смещения при чтении : 6Способность читать области Lead-in и Lead-out : НетЗаполнение пропущенных сэмплов тишиной : ДаУдаление блоков с тишиной в начале и конце : НетПри вычислениях CRC использовались нулевые сэмплы : ДаИнтерфейс : Встроенный Win32-интерфейс для Win NT/2000
Выходной формат : Внутренние WAV-операцииФормат сэмплов : 44.100 Гц; 16 бит; стерео
TOC извлечённого CD
Трек | Старт | Длительность | Начальный сектор | Конечный сектор --------------------------------------------------------------------- 1 | 0:00.00 | 4:37.43 | 0 | 20817 2 | 4:37.43 | 4:01.42 | 20818 | 38934 3 | 8:39.10 | 4:38.05 | 38935 | 59789 4 | 13:17.15 | 4:11.32 | 59790 | 78646 5 | 17:28.47 | 5:14.68 | 78647 | 102264 6 | 22:43.40 | 4:28.38 | 102265 | 122402 7 | 27:12.03 | 5:41.14 | 122403 | 147991 8 | 32:53.17 | 4:47.38 | 147992 | 169554 9 | 37:40.55 | 2:53.00 | 169555 | 182529 10 | 40:33.55 | 5:01.51 | 182530 | 205155 11 | 45:35.31 | 6:22.71 | 205156 | 233876 12 | 51:58.27 | 4:49.09 | 233877 | 255560 13 | 56:47.36 | 3:35.31 | 255561 | 271716 14 | 60:22.67 | 4:49.09 | 271717 | 293400 15 | 65:12.01 | 3:35.27 | 293401 | 309552 16 | 68:47.28 | 3:12.14 | 309553 | 323966 17 | 71:59.42 | 4:48.30 | 323967 | 345596 18 | 76:47.72 | 3:09.57 | 345597 | 359828
Характеристики диапазона извлечения и сообщения об ошибках
Выбранный диапазон
Имя файла C:\Documents and Settings\Admin\Мои документы\Моя музыка\Виталий Аксенов - Grand Collection\Виталий Аксенов - Grand Collection.wav
Пиковый уровень 98.8 %0.3 X Качество диапазона 100.0 % CRC теста DEC0A372 CRC копии DEC0A372 Копирование... OK
Ошибок не произошло
AccurateRip: сводка
Трек 1 нет в базе данныхТрек 2 нет в базе данныхТрек 3 нет в базе данныхТрек 4 нет в базе данныхТрек 5 нет в базе данныхТрек 6 нет в базе данныхТрек 7 нет в базе данныхТрек 8 нет в базе данныхТрек 9 нет в базе данныхТрек 10 нет в базе данныхТрек 11 нет в базе данныхТрек 12 нет в базе данныхТрек 13 нет в базе данныхТрек 14 нет в базе данныхТрек 15 нет в базе данныхТрек 16 нет в базе данныхТрек 17 нет в базе данныхТрек 18 нет в базе данных
Ни одного трека нет в базе AccurateRip
Конец отчёта
==== 89C74E0B4F5E00155919300C5F661ECEC9B70A540BC2FBC903B183D1CBDDD190 ====

Audiochecker

AUDIOCHECKER v2.0 beta (build 457) - by Dester - opdester@freemail.hu~~~~~~~~~~~~~~~~~~~~~~~~~~~~~~~~~~-=== НЕ РЕДАКТИРУЙТЕ ЭТОТ ФАЙЛ! ===-
Путь: ...\Виталий Аксенов - Grand Collection
1 -=- Виталий Аксенов - Grand Collection.wav -=- CDDA (100%)
230255972

Adobe Audition

Александрова Марина

Год издания диска: 2011
Номер по каталогу: GCR 309
Продолжительность: 1:10:41
-01. Возьми меня замуж (4:00)02. Милый мой гаишник (3:16)03. Любишь, не любишь (4:00)04. День рождения (3:22)05. Непутевый (3:30)06. Ноль без палочки (3:49)07. В чем причина (3:32)08. Опоздала (3:44)09. Научи, как быть любимой (3:21)10. Золотая клетка (3:06)11. Мама (3:31)12. Выбор мой (3:37)13. Не любишь (4:08)14. Горько (3:23)15. Любовь ушла (3:49)16. Лебеди белые (4:08)17. Прощай (3:56)18. Прощай (ремикс) (4:22)19. Малиновый рай (4:08)

Лог ЕАС

Exact Audio Copy V1.0 beta 1 from 15. November 2010
Отчёт EAC об извлечении, выполненном 25. августа 2011, 21:13
Марина Александрова / Grand Collection
Дисковод: ASUS DRW-24B3ST Adapter: 2 ID: 1
Режим чтения : ДостоверностьИспользование точного потока : ДаОтключение кэша аудио : ДаИспользование указателей C2 : Нет
Коррекция смещения при чтении : 6Способность читать области Lead-in и Lead-out : НетЗаполнение пропущенных сэмплов тишиной : ДаУдаление блоков с тишиной в начале и конце : НетПри вычислениях CRC использовались нулевые сэмплы : ДаИнтерфейс : Встроенный Win32-интерфейс для Win NT/2000
Выходной формат : Внутренние WAV-операцииФормат сэмплов : 44.100 Гц; 16 бит; стерео
TOC извлечённого CD
Трек | Старт | Длительность | Начальный сектор | Конечный сектор --------------------------------------------------------------------- 1 | 0:00.00 | 3:59.74 | 0 | 17998 2 | 3:59.74 | 3:16.24 | 17999 | 32722 3 | 7:16.23 | 4:00.25 | 32723 | 50747 4 | 11:16.48 | 3:22.23 | 50748 | 65920 5 | 14:38.71 | 3:29.58 | 65921 | 81653 6 | 18:08.54 | 3:48.40 | 81654 | 98793 7 | 21:57.19 | 3:31.58 | 98794 | 114676 8 | 25:29.02 | 3:43.58 | 114677 | 131459 9 | 29:12.60 | 3:20.58 | 131460 | 146517 10 | 32:33.43 | 3:06.34 | 146518 | 160501 11 | 35:40.02 | 3:31.26 | 160502 | 176352 12 | 39:11.28 | 3:37.33 | 176353 | 192660 13 | 42:48.61 | 4:07.72 | 192661 | 211257 14 | 46:56.58 | 3:22.44 | 211258 | 226451 15 | 50:19.27 | 3:48.59 | 226452 | 243610 16 | 54:08.11 | 4:07.38 | 243611 | 262173 17 | 58:15.49 | 3:56.26 | 262174 | 279899 18 | 62:12.00 | 4:21.45 | 279900 | 299519 19 | 66:33.45 | 4:07.54 | 299520 | 318098
Характеристики диапазона извлечения и сообщения об ошибках
Выбранный диапазон
Имя файла H:\Lossless. Шансон, Авторская и Военная песня\Русский шансон\Сборники\Серия «Grand Collection» © 2001-2011 lossless\Александрова Марина (2011)\Марина Александрова - Grand Collection.wav
Пиковый уровень 98.5 %0.3 X Качество диапазона 100.0 % CRC теста 3632D9A9 CRC копии 3632D9A9 Копирование... OK
Ошибок не произошло
AccurateRip: сводка
Трек 1 нет в базе данныхТрек 2 нет в базе данныхТрек 3 нет в базе данныхТрек 4 нет в базе данныхТрек 5 нет в базе данныхТрек 6 нет в базе данныхТрек 7 нет в базе данныхТрек 8 нет в базе данныхТрек 9 нет в базе данныхТрек 10 нет в базе данныхТрек 11 нет в базе данныхТрек 12 нет в базе данныхТрек 13 нет в базе данныхТрек 14 нет в базе данныхТрек 15 нет в базе данныхТрек 16 нет в базе данныхТрек 17 нет в базе данныхТрек 18 нет в базе данныхТрек 19 нет в базе данных
Ни одного трека нет в базе AccurateRip
Конец отчёта
==== 1038A28F88DF60572724D2C6223DDD45B6EF7467CD52C83CDA055AA072503AFE ====

Audiochecker

AUDIOCHECKER v2.0 beta (build 457) - by Dester - opdester@freemail.hu~~~~~~~~~~~~~~~~~~~~~~~~~~~~~~~~~~-=== НЕ РЕДАКТИРУЙТЕ ЭТОТ ФАЙЛ! ===-
Путь: ...\Александрова Марина (2011)
1 -=- Марина Александрова - Grand Collection.wav -=- CDDA (100%)
264144996

Adobe Audition

Амирамов Ефрем

Год издания диска: 2012
Номер по каталогу: GCR312
Продолжительность: 1:09:06
-01. Молодая (4:03)02. Алёнка (3:54)03. Любимая моя (4:01)04. Дом на колёсах (3:28)05. Цвет ночного неба между звёзд (3:49)06. Наши годы (2:12)07. Судьба (4:26)08. А жизнь куда-то катится (3:05)09. Не жалей огня (4:27)10. На мокром шоссе (4:35)11. Каким меня ты ядом напоила (4:10)12. Только не ты (3:53)13. Для тебя (4:23)14. Рассвет (4:20)15. Искры в камине (3:21)16. Рано или поздно (3:57)17. Последний менестрель (3:09)18. Соловей и роза (3:54)

Лог ЕАС

Exact Audio Copy V1.0 beta 3 from 29. August 2011
Отчёт EAC об извлечении, выполненном 19. октября 2012, 20:12
Ефрем Амирамов / Grand Collection
Дисковод: ASUS DRW-1814BLT Adapter: 2 ID: 0
Режим чтения : ДостоверностьИспользование точного потока : ДаОтключение кэша аудио : ДаИспользование указателей C2 : Нет
Коррекция смещения при чтении : 6Способность читать области Lead-in и Lead-out : НетЗаполнение пропущенных сэмплов тишиной : ДаУдаление блоков с тишиной в начале и конце : НетПри вычислениях CRC использовались нулевые сэмплы : ДаИнтерфейс : Встроенный Win32-интерфейс для Win NT/2000
Выходной формат : Внутренние WAV-операцииФормат сэмплов : 44.100 Гц; 16 бит; стерео
TOC извлечённого CD
Трек | Старт | Длительность | Начальный сектор | Конечный сектор --------------------------------------------------------------------- 1 | 0:00.00 | 4:03.01 | 0 | 18225 2 | 4:03.01 | 3:53.56 | 18226 | 35756 3 | 7:56.57 | 4:00.39 | 35757 | 53795 4 | 11:57.21 | 3:27.56 | 53796 | 69376 5 | 15:25.02 | 3:49.13 | 69377 | 86564 6 | 19:14.15 | 2:12.27 | 86565 | 96491 7 | 21:26.42 | 4:25.68 | 96492 | 116434 8 | 25:52.35 | 3:04.73 | 116435 | 130307 9 | 28:57.33 | 4:27.27 | 130308 | 150359 10 | 33:24.60 | 4:34.57 | 150360 | 170966 11 | 37:59.42 | 4:10.27 | 170967 | 189743 12 | 42:09.69 | 3:52.65 | 189744 | 207208 13 | 46:02.59 | 4:22.44 | 207209 | 226902 14 | 50:25.28 | 4:19.51 | 226903 | 246378 15 | 54:45.04 | 3:21.10 | 246379 | 261463 16 | 58:06.14 | 3:56.50 | 261464 | 279213 17 | 62:02.64 | 3:08.52 | 279214 | 293365 18 | 65:11.41 | 3:54.26 | 293366 | 310941
Характеристики диапазона извлечения и сообщения об ошибках
Выбранный диапазон
Имя файла C:\Ефрем Амирамов - Grand Collection\Ефрем Амирамов - Grand Collection.wav
Пиковый уровень 98.4 % Скорость извлечения 9.3 X Качество диапазона 100.0 % CRC теста 16433E2F CRC копии 16433E2F Копирование... OK
Ошибок не произошло
AccurateRip: сводка
Трек 1 отсутствует в базе данныхТрек 2 отсутствует в базе данныхТрек 3 отсутствует в базе данныхТрек 4 отсутствует в базе данныхТрек 5 отсутствует в базе данныхТрек 6 отсутствует в базе данныхТрек 7 отсутствует в базе данныхТрек 8 отсутствует в базе данныхТрек 9 отсутствует в базе данныхТрек 10 отсутствует в базе данныхТрек 11 отсутствует в базе данныхТрек 12 отсутствует в базе данныхТрек 13 отсутствует в базе данныхТрек 14 отсутствует в базе данныхТрек 15 отсутствует в базе данныхТрек 16 отсутствует в базе данныхТрек 17 отсутствует в базе данныхТрек 18 отсутствует в базе данных
Ни одного трека нет в базе AccurateRip
Конец отчёта
==== Контрольная сумма отчёта E936318472DA1A2AC788DDF58F81EB395F58B74FBFDA33E70FAAFEB293B50B3E ====

Audiochecker

AUDIOCHECKER v2.0 beta (build 457) - by Dester - opdester@freemail.hu~~~~~~~~~~~~~~~~~~~~~~~~~~~~~~~~~~-=== НЕ РЕДАКТИРУЙТЕ ЭТОТ ФАЙЛ! ===-
Путь: ...\Ефрем Амирамов - Grand Collection
1 -=- Ефрем Амирамов - Grand Collection.wav -=- CDDA (99%)
147444004

Adobe Audition

Артур

Год издания диска: 2013
Номер по каталогу: UMGCD13-251
Продолжительность: 01:19:58
-01. Забыть нельзя (3:37)02. Без любви твоей не смогу (3:09)03. Не разлюбить тебя позволь (3:23)04. Судьба (3:40)05. Еще вчера (4:07)06. Слезы любви (3:36)07. Непонимание (3:44)08. Падал белый снег (3:19)09. Завтра (4:37)10. У той зимы непрошенной (3:43)11. Пойми, я больше не могу (3:13)12. Прости (3:31)13. Лето пролетело (3:14)14. Счастье ты мое голубоглазое (4:19)15. Останься (3:49)16. Недолюбленная весна (4:21)17. Ветер гонит злые тучи (3:39)18. А любовь осенняя (4:13)19. Я уеду (3:41)20. Мгновения (3:06)21. Снова сердце встречает весну (3:00)22. Спасибо Вам (2:57)

Лог ЕАС

Exact Audio Copy V1.0 beta 3 from 29. August 2011
Отчёт EAC об извлечении, выполненном 31. декабря 2013, 20:01
Артур / Grand Collection
Дисковод: ASUS DRW-1814BLT Adapter: 1 ID: 1
Режим чтения : ДостоверностьИспользование точного потока : ДаОтключение кэша аудио : ДаИспользование указателей C2 : Нет
Коррекция смещения при чтении : 6Способность читать области Lead-in и Lead-out : НетЗаполнение пропущенных сэмплов тишиной : ДаУдаление блоков с тишиной в начале и конце : НетПри вычислениях CRC использовались нулевые сэмплы : ДаИнтерфейс : Встроенный Win32-интерфейс для Win NT/2000
Выходной формат : Внутренние WAV-операцииФормат сэмплов : 44.100 Гц; 16 бит; стерео
TOC извлечённого CD
Трек | Старт | Длительность | Начальный сектор | Конечный сектор --------------------------------------------------------------------- 1 | 0:00.00 | 3:36.53 | 0 | 16252 2 | 3:36.53 | 3:08.65 | 16253 | 30417 3 | 6:45.43 | 3:23.04 | 30418 | 45646 4 | 10:08.47 | 3:40.01 | 45647 | 62147 5 | 13:48.48 | 4:06.38 | 62148 | 80635 6 | 17:55.11 | 3:36.05 | 80636 | 96840 7 | 21:31.16 | 3:44.19 | 96841 | 113659 8 | 25:15.35 | 3:19.28 | 113660 | 128612 9 | 28:34.63 | 4:37.37 | 128613 | 149424 10 | 33:12.25 | 3:43.35 | 149425 | 166184 11 | 36:55.60 | 3:12.40 | 166185 | 180624 12 | 40:08.25 | 3:30.41 | 180625 | 196415 13 | 43:38.66 | 3:14.25 | 196416 | 210990 14 | 46:53.16 | 4:19.15 | 210991 | 230430 15 | 51:12.31 | 3:49.34 | 230431 | 247639 16 | 55:01.65 | 4:20.40 | 247640 | 267179 17 | 59:22.30 | 3:39.25 | 267180 | 283629 18 | 63:01.55 | 4:12.38 | 283630 | 302567 19 | 67:14.18 | 3:40.38 | 302568 | 319105 20 | 70:54.56 | 3:06.08 | 319106 | 333063 21 | 74:00.64 | 3:00.35 | 333064 | 346598 22 | 77:01.24 | 2:56.43 | 346599 | 359841
Характеристики диапазона извлечения и сообщения об ошибках
Выбранный диапазон
Имя файла C:\vlad victorovich\Артур - Grand Collection.wav
Пиковый уровень 99.9 % Скорость извлечения 6.9 X Качество диапазона 100.0 % CRC теста F70CA5A8 CRC копии F70CA5A8 Копирование... OK
Ошибок не произошло
AccurateRip: сводка
Трек 1 отсутствует в базе данныхТрек 2 отсутствует в базе данныхТрек 3 отсутствует в базе данныхТрек 4 отсутствует в базе данныхТрек 5 отсутствует в базе данныхТрек 6 отсутствует в базе данныхТрек 7 отсутствует в базе данныхТрек 8 отсутствует в базе данныхТрек 9 отсутствует в базе данныхТрек 10 отсутствует в базе данныхТрек 11 отсутствует в базе данныхТрек 12 отсутствует в базе данныхТрек 13 отсутствует в базе данныхТрек 14 отсутствует в базе данныхТрек 15 отсутствует в базе данныхТрек 16 отсутствует в базе данныхТрек 17 отсутствует в базе данныхТрек 18 отсутствует в базе данныхТрек 19 отсутствует в базе данныхТрек 20 отсутствует в базе данныхТрек 21 отсутствует в базе данныхТрек 22 отсутствует в базе данных
Ни одного трека нет в базе AccurateRip
Конец отчёта
==== Контрольная сумма отчёта 63C5515E5CDF290884CAD0D3FF697C9CDA99AEF826AB8801867F717CE33A3E4C ====

Audiochecker

AUDIOCHECKER v2.0 beta (build 457) - by Dester - opdester@freemail.hu~~~~~~~~~~~~~~~~~~~~~~~~~~~~~~~~~~-=== НЕ РЕДАКТИРУЙТЕ ЭТОТ ФАЙЛ! ===-
Путь: ...\vlad victorovich
1 -=- Артур - Grand Collection.wav -=- CDDA (100%)
46822740

Adobe Audition

Бандера Андрей

Год издания диска: 28.09.10
Номер по каталогу: GCR297
Продолжительность: 1:18:33
-01. Горлинка (4:53)02. Любимая (3:54)03. Ты лети, моя душа (4:11)04. Соловьи (3:21)05. А помнишь (3:15)06. Я хочу обвенчаться с тобой (3:37)07. Самая желанная (3:55)08. Выткался над озером... (3:39)09. Голуби (3:30)10. Закружится (4:05)11. Ивушки (4:09)12. Клён (2:59)13. Метелица (3:40)14. Ночка (3:25)15. Осенний дождь (3:53)16. Поля России (3:50)17. Сыпь, тальянка (3:21)18. Огонек любви (4:51)19. Не любить невозможно (3:01)20. Незнакомка (3:20)21. Мама (3:42)

Лог ЕАС

Exact Audio Copy V1.0 beta 1 from 15. November 2010
Отчёт EAC об извлечении, выполненном 23. марта 2011, 19:00
Андрей Бандера / Grand Collection
Дисковод: ASUS DRW-1814BLT Adapter: 2 ID: 0
Режим чтения : ДостоверностьИспользование точного потока : ДаОтключение кэша аудио : ДаИспользование указателей C2 : Нет
Коррекция смещения при чтении : 6Способность читать области Lead-in и Lead-out : НетЗаполнение пропущенных сэмплов тишиной : ДаУдаление блоков с тишиной в начале и конце : НетПри вычислениях CRC использовались нулевые сэмплы : ДаИнтерфейс : Встроенный Win32-интерфейс для Win NT/2000
Выходной формат : Внутренние WAV-операцииФормат сэмплов : 44.100 Гц; 16 бит; стерео
TOC извлечённого CD
Трек | Старт | Длительность | Начальный сектор | Конечный сектор --------------------------------------------------------------------- 1 | 0:00.00 | 4:52.47 | 0 | 21946 2 | 4:52.47 | 3:54.32 | 21947 | 39528 3 | 8:47.04 | 4:11.03 | 39529 | 58356 4 | 12:58.07 | 3:21.30 | 58357 | 73461 5 | 16:19.37 | 3:15.08 | 73462 | 88094 6 | 19:34.45 | 3:36.67 | 88095 | 104361 7 | 23:11.37 | 3:54.67 | 104362 | 121978 8 | 27:06.29 | 3:38.67 | 121979 | 138395 9 | 30:45.21 | 3:29.68 | 138396 | 154138 10 | 34:15.14 | 4:05.15 | 154139 | 172528 11 | 38:20.29 | 4:09.29 | 172529 | 191232 12 | 42:29.58 | 2:58.58 | 191233 | 204640 13 | 45:28.41 | 3:40.37 | 204641 | 221177 14 | 49:09.03 | 3:25.34 | 221178 | 236586 15 | 52:34.37 | 3:52.57 | 236587 | 254043 16 | 56:27.19 | 3:50.27 | 254044 | 271320 17 | 60:17.46 | 3:21.14 | 271321 | 286409 18 | 63:38.60 | 4:50.63 | 286410 | 308222 19 | 68:29.48 | 3:01.23 | 308223 | 321820 20 | 71:30.71 | 3:20.12 | 321821 | 336832 21 | 74:51.08 | 3:42.00 | 336833 | 353482
Характеристики диапазона извлечения и сообщения об ошибках
Выбранный диапазон
Имя файла H:\Lossless. Шансон, Авторская и Военная песня\Русский шансон\Сборники\Серия «Grand Collection» © 2001-2011 lossless10 - Бандера Андрей\Андрей Бандера - Grand Collection.wav
Пиковый уровень 97.7 %0.2 X Качество диапазона 100.0 % CRC теста C629B6ED CRC копии C629B6ED Копирование... OK
Ошибок не произошло
AccurateRip: сводка
Трек 1 нет в базе данныхТрек 2 нет в базе данныхТрек 3 нет в базе данныхТрек 4 нет в базе данныхТрек 5 нет в базе данныхТрек 6 нет в базе данныхТрек 7 нет в базе данныхТрек 8 нет в базе данныхТрек 9 нет в базе данныхТрек 10 нет в базе данныхТрек 11 нет в базе данныхТрек 12 нет в базе данныхТрек 13 нет в базе данныхТрек 14 нет в базе данныхТрек 15 нет в базе данныхТрек 16 нет в базе данныхТрек 17 нет в базе данныхТрек 18 нет в базе данныхТрек 19 нет в базе данныхТрек 20 нет в базе данныхТрек 21 нет в базе данных
Ни одного трека нет в базе AccurateRip
Конец отчёта
==== 53C4D70EE8C31920BD2D6E1A3D15CC159F630B51AC0B58743DC884D41457669C ====

Audiochecker

AUDIOCHECKER v2.0 beta (build 457) - by Dester - opdester@freemail.hu~~~~~~~~~~~~~~~~~~~~~~~~~~~~~~~~~~-=== НЕ РЕДАКТИРУЙТЕ ЭТОТ ФАЙЛ! ===-
Путь: ...10 - Бандера Андрей
1 -=- Андрей Бандера - Grand Collection.wav -=- CDDA (100%)
30617556

Adobe Audition

Беломорканал

Год издания диска: 2011
Номер по каталогу: CC CD 39/11
Продолжительность: 1:19:52
-01. Разведенные мосты (5:43)02. Журавли (5:41)03. Кресты (4:01)04. Пристань вечной тайги (6:01)05. Урка Мишка (3:09)06. Жиган и жучка (4:10)07. Вор (3:33)08. Разговор с душой (4:44)09. Централка (3:25)10. Девонки (3:10)11. Беломор и Волга-Балт (3:05)12. Рождественская сказка (4:03)13. Посвящение (3:21)14. Брат-2 (5:10)15. Чифирок и папироса (3:41)16. Кайло (3:05)17. Водочка (3:54)18. Люба + жиган (4:27)19. Отец (5:31)

Лог ЕАС

Exact Audio Copy V1.0 beta 1 from 15. November 2010
Отчёт EAC об извлечении, выполненном 25. августа 2011, 15:30
Беломорканал / Grand Collection
Дисковод: ASUS DRW-24B3ST Adapter: 2 ID: 1
Режим чтения : ДостоверностьИспользование точного потока : ДаОтключение кэша аудио : ДаИспользование указателей C2 : Нет
Коррекция смещения при чтении : 6Способность читать области Lead-in и Lead-out : НетЗаполнение пропущенных сэмплов тишиной : ДаУдаление блоков с тишиной в начале и конце : НетПри вычислениях CRC использовались нулевые сэмплы : ДаИнтерфейс : Встроенный Win32-интерфейс для Win NT/2000
Выходной формат : Внутренние WAV-операцииФормат сэмплов : 44.100 Гц; 16 бит; стерео
TOC извлечённого CD
Трек | Старт | Длительность | Начальный сектор | Конечный сектор --------------------------------------------------------------------- 1 | 0:00.00 | 5:43.20 | 0 | 25744 2 | 5:43.20 | 5:40.50 | 25745 | 51294 3 | 11:23.70 | 4:00.73 | 51295 | 69367 4 | 15:24.68 | 6:01.00 | 69368 | 96442 5 | 21:25.68 | 3:08.56 | 96443 | 110598 6 | 24:34.49 | 4:09.61 | 110599 | 129334 7 | 28:44.35 | 3:33.02 | 129335 | 145311 8 | 32:17.37 | 4:44.01 | 145312 | 166612 9 | 37:01.38 | 3:24.47 | 166613 | 181959 10 | 40:26.10 | 3:09.51 | 181960 | 196185 11 | 43:35.61 | 3:05.18 | 196186 | 210078 12 | 46:41.04 | 4:02.53 | 210079 | 228281 13 | 50:43.57 | 3:21.08 | 228282 | 243364 14 | 54:04.65 | 5:10.36 | 243365 | 266650 15 | 59:15.26 | 3:41.03 | 266651 | 283228 16 | 62:56.29 | 3:04.57 | 283229 | 297085 17 | 66:01.11 | 3:53.64 | 297086 | 314624 18 | 69:55.00 | 4:26.60 | 314625 | 334634 19 | 74:21.60 | 5:30.41 | 334635 | 359425
Характеристики диапазона извлечения и сообщения об ошибках
Выбранный диапазон
Имя файла H:\Lossless. Шансон, Авторская и Военная песня\Русский шансон\Сборники\Серия «Grand Collection» © 2001-2011 lossless\Беломорканал (2011)\Беломорканал - Grand Collection.wav
Пиковый уровень 100.0 %0.4 X Качество диапазона 99.9 % CRC теста BA94EF9F CRC копии BA94EF9F Копирование... OK
Ошибок не произошло
AccurateRip: сводка
Трек 1 нет в базе данныхТрек 2 нет в базе данныхТрек 3 нет в базе данныхТрек 4 нет в базе данныхТрек 5 нет в базе данныхТрек 6 нет в базе данныхТрек 7 нет в базе данныхТрек 8 нет в базе данныхТрек 9 нет в базе данныхТрек 10 нет в базе данныхТрек 11 нет в базе данныхТрек 12 нет в базе данныхТрек 13 нет в базе данныхТрек 14 нет в базе данныхТрек 15 нет в базе данныхТрек 16 нет в базе данныхТрек 17 нет в базе данныхТрек 18 нет в базе данныхТрек 19 нет в базе данных
Ни одного трека нет в базе AccurateRip
Конец отчёта
==== 6B66934E654C11A170431FA4C0FF58EECAB0621FE2E5F632A5955D3A35E4E2CA ====

Audiochecker

AUDIOCHECKER v2.0 beta (build 457) - by Dester - opdester@freemail.hu~~~~~~~~~~~~~~~~~~~~~~~~~~~~~~~~~~-=== НЕ РЕДАКТИРУЙТЕ ЭТОТ ФАЙЛ! ===-
Путь: ...\Беломорканал (2011)
1 -=- Беломорканал - Grand Collection.flac -=- CDDA (100%)
85713236

Adobe Audition

Белоусов Юрий

Год издания диска: 2012
Номер по каталогу: СС CD 04/12
Продолжительность: 1:17:03
-01. Кумир (3:36)02. Важно, что вместе (3:14)03. Солдатка (3:00)04. Про казака (3:37)05. Звезды (4:30)06. Голубка сизокрылая (4:08)07. Мой тренер (4:43)08. Прощай (3:40)09. Дорога (3:34)10. ДПС (3:40)11. Ночной город (3:26)12. Свирель (3:36)13. Привет, Юрий Гагарин (4:21)14. Арарат (4:07)15. Цыганская невеста (3:34)16. Мама (3:48)17. Сала кусок (3:30)18. Волюшка (4:31)19. Жизнь продожается (3:27)20. Штабс-капитан (5:00)

Лог ЕАС

Exact Audio Copy V1.0 beta 3 from 29. August 2011
Отчёт EAC об извлечении, выполненном 19. октября 2012, 20:57
Юрий Белоусов / Grand Collection
Дисковод: ASUS DRW-24B3ST Adapter: 1 ID: 1
Режим чтения : ДостоверностьИспользование точного потока : ДаОтключение кэша аудио : ДаИспользование указателей C2 : Нет
Коррекция смещения при чтении : 6Способность читать области Lead-in и Lead-out : НетЗаполнение пропущенных сэмплов тишиной : ДаУдаление блоков с тишиной в начале и конце : НетПри вычислениях CRC использовались нулевые сэмплы : ДаИнтерфейс : Встроенный Win32-интерфейс для Win NT/2000
Выходной формат : Внутренние WAV-операцииФормат сэмплов : 44.100 Гц; 16 бит; стерео
TOC извлечённого CD
Трек | Старт | Длительность | Начальный сектор | Конечный сектор --------------------------------------------------------------------- 1 | 0:00.00 | 3:36.01 | 0 | 16200 2 | 3:36.01 | 3:14.02 | 16201 | 30752 3 | 6:50.03 | 3:00.00 | 30753 | 44252 4 | 9:50.03 | 3:37.09 | 44253 | 60536 5 | 13:27.12 | 4:30.00 | 60537 | 80786 6 | 17:57.12 | 4:08.00 | 80787 | 99386 7 | 22:05.12 | 4:42.69 | 99387 | 120605 8 | 26:48.06 | 3:40.00 | 120606 | 137105 9 | 30:28.06 | 3:34.33 | 137106 | 153188 10 | 34:02.39 | 3:40.00 | 153189 | 169688 11 | 37:42.39 | 3:26.09 | 169689 | 185147 12 | 41:08.48 | 3:36.36 | 185148 | 201383 13 | 44:45.09 | 4:20.51 | 201384 | 220934 14 | 49:05.60 | 4:06.48 | 220935 | 239432 15 | 53:12.33 | 3:34.00 | 239433 | 255482 16 | 56:46.33 | 3:48.00 | 255483 | 272582 17 | 60:34.33 | 3:30.32 | 272583 | 288364 18 | 64:04.65 | 4:31.36 | 288365 | 308725 19 | 68:36.26 | 3:27.21 | 308726 | 324271 20 | 72:03.47 | 4:59.40 | 324272 | 346736
Характеристики диапазона извлечения и сообщения об ошибках
Выбранный диапазон
Имя файла C:\Юрий Белоусов - Grand Collection\Юрий Белоусов - Grand Collection.wav
Пиковый уровень 100.0 % Скорость извлечения 6.9 X Качество диапазона 100.0 % CRC теста 31C12911 CRC копии 31C12911 Копирование... OK
Ошибок не произошло
AccurateRip: сводка
Трек 1 отсутствует в базе данныхТрек 2 отсутствует в базе данныхТрек 3 отсутствует в базе данныхТрек 4 отсутствует в базе данныхТрек 5 отсутствует в базе данныхТрек 6 отсутствует в базе данныхТрек 7 отсутствует в базе данныхТрек 8 отсутствует в базе данныхТрек 9 отсутствует в базе данныхТрек 10 отсутствует в базе данныхТрек 11 отсутствует в базе данныхТрек 12 отсутствует в базе данныхТрек 13 отсутствует в базе данныхТрек 14 отсутствует в базе данныхТрек 15 отсутствует в базе данныхТрек 16 отсутствует в базе данныхТрек 17 отсутствует в базе данныхТрек 18 отсутствует в базе данныхТрек 19 отсутствует в базе данныхТрек 20 отсутствует в базе данных
Ни одного трека нет в базе AccurateRip
Конец отчёта
==== Контрольная сумма отчёта 3C5947FA4E9D56AF5C10EEE8A01DC3EE71EB439FB8240AE0903DEDF8676B52E1 ====

Audiochecker

AUDIOCHECKER v2.0 beta (build 457) - by Dester - opdester@freemail.hu~~~~~~~~~~~~~~~~~~~~~~~~~~~~~~~~~~-=== НЕ РЕДАКТИРУЙТЕ ЭТОТ ФАЙЛ! ===-
Путь: ...\Юрий Белоусов - Grand Collection
1 -=- Юрий Белоусов - Grand Collection.wav -=- MPEG (95%)
205386788

Adobe Audition

Бока

Год издания диска: 08.12.08
Номер по каталогу: GCR267
Продолжительность: 1:17:21
-01. Душа моя (4:49)02. Милая (4:28)03. В глазах туман (3:52)04. Где ты, юность моя (4:42)05. Братишка (3:28)06. Мама (6:20)07. Звенит звонок (6:56)08. Это любимая ты (4:00)09. Я пьян (4:26)10. Хлопнем-хлопнем (3:46)11. Фраер (4:12)12. Мой город (8:08)13. Осенней порой (4:47)14. Не проси (5:13)15. Прости меня (3:02)16. Ностальгия (5:12)

Лог ЕАС

Exact Audio Copy V1.0 beta 1 from 15. November 2010
Отчёт EAC об извлечении, выполненном 9. февраля 2011, 20:06
Бока / Grand Collection
Дисковод: ASUS DRW-1814BLT Adapter: 2 ID: 0
Режим чтения : ДостоверностьИспользование точного потока : ДаОтключение кэша аудио : ДаИспользование указателей C2 : Нет
Коррекция смещения при чтении : 6Способность читать области Lead-in и Lead-out : НетЗаполнение пропущенных сэмплов тишиной : ДаУдаление блоков с тишиной в начале и конце : НетПри вычислениях CRC использовались нулевые сэмплы : ДаИнтерфейс : Встроенный Win32-интерфейс для Win NT/2000
Выходной формат : Внутренние WAV-операцииФормат сэмплов : 44.100 Гц; 16 бит; стерео
TOC извлечённого CD
Трек | Старт | Длительность | Начальный сектор | Конечный сектор --------------------------------------------------------------------- 1 | 0:00.00 | 4:49.05 | 0 | 21679 2 | 4:49.05 | 4:28.30 | 21680 | 41809 3 | 9:17.35 | 3:51.51 | 41810 | 59185 4 | 13:09.11 | 4:42.32 | 59186 | 80367 5 | 17:51.43 | 3:28.31 | 80368 | 95998 6 | 21:19.74 | 6:20.11 | 95999 | 124509 7 | 27:40.10 | 6:56.33 | 124510 | 155742 8 | 34:36.43 | 3:59.66 | 155743 | 173733 9 | 38:36.34 | 4:25.47 | 173734 | 193655 10 | 43:02.06 | 3:46.11 | 193656 | 210616 11 | 46:48.17 | 4:11.54 | 210617 | 229495 12 | 50:59.71 | 8:07.43 | 229496 | 266063 13 | 59:07.39 | 4:46.59 | 266064 | 287572 14 | 63:54.23 | 5:12.42 | 287573 | 311014 15 | 69:06.65 | 3:01.66 | 311015 | 324655 16 | 72:08.56 | 5:11.69 | 324656 | 348049
Характеристики диапазона извлечения и сообщения об ошибках
Выбранный диапазон
Имя файла D:\Grand Collection\Бока - Grand Collection\Бока - Grand Collection.wav
Пиковый уровень 98.1 %0.6 X Качество диапазона 100.0 % CRC теста 9D5B44B0 CRC копии 9D5B44B0 Копирование... OK
Ошибок не произошло
AccurateRip: сводка
Трек 1 нет в базе данныхТрек 2 нет в базе данныхТрек 3 нет в базе данныхТрек 4 нет в базе данныхТрек 5 нет в базе данныхТрек 6 нет в базе данныхТрек 7 нет в базе данныхТрек 8 нет в базе данныхТрек 9 нет в базе данныхТрек 10 нет в базе данныхТрек 11 нет в базе данныхТрек 12 нет в базе данныхТрек 13 нет в базе данныхТрек 14 нет в базе данныхТрек 15 нет в базе данныхТрек 16 нет в базе данных
Ни одного трека нет в базе AccurateRip
Конец отчёта
==== A4E50E8C4683542466857EC959FF3805D5AC33BE4689B09A0E7BB735F05D9C3D ====

Audiochecker

AUDIOCHECKER v2.0 beta (build 457) - by Dester - opdester@freemail.hu~~~~~~~~~~~~~~~~~~~~~~~~~~~~~~~~~~-=== НЕ РЕДАКТИРУЙТЕ ЭТОТ ФАЙЛ! ===-
Путь: ...08 - Бока
1 -=- Бока - Grand Collection.wav -=- CDDA (100%)
74477684

Adobe Audition

Братья Жемчужные

Год издания диска: 16.08.05
Номер по каталогу: GCR184
Продолжительность: 1:14:22
-01. Вступление А.Фрумин (0:23)02. Стоял я раз на стрёме (3:16)03. Семь маслин в нагане (3:14)04. Памяти друга (4:34)05. Осенняя роса (3:40)06. Тапёр (4:52)07. Начальничек (3:32)08. Гиппопотам (3:51)09. Конфетки-прянички (3:34)10. Что нас ждёт (4:18)11. Берёзы (4:59)12. Равенство (3:12)13. Раз в Ростове-на-Дону (6:00)14. Кошмары (3:43)15. Братва (4:02)16. Солёные грибочки (3:38)17. Докурим свой окурочек (3:26)18. Разговор с Авророй (3:01)19. Старый саксофон (3:46)20. Дворовый джаз (3:22)

Лог ЕАС

Exact Audio Copy V1.0 beta 1 from 15. November 2010
Отчёт EAC об извлечении, выполненном 5. февраля 2011, 13:37
Братья Жемчужные / GRAND Collection
Дисковод: ASUS DRW-1814BLT Adapter: 2 ID: 0
Режим чтения : ДостоверностьИспользование точного потока : ДаОтключение кэша аудио : ДаИспользование указателей C2 : Нет
Коррекция смещения при чтении : 6Способность читать области Lead-in и Lead-out : НетЗаполнение пропущенных сэмплов тишиной : ДаУдаление блоков с тишиной в начале и конце : НетПри вычислениях CRC использовались нулевые сэмплы : ДаИнтерфейс : Встроенный Win32-интерфейс для Win NT/2000
Выходной формат : Внутренние WAV-операцииФормат сэмплов : 44.100 Гц; 16 бит; стерео
TOC извлечённого CD
Трек | Старт | Длительность | Начальный сектор | Конечный сектор --------------------------------------------------------------------- 1 | 0:00.00 | 0:22.53 | 0 | 1702 2 | 0:22.53 | 3:16.31 | 1703 | 16433 3 | 3:39.09 | 3:14.35 | 16434 | 31018 4 | 6:53.44 | 4:34.25 | 31019 | 51593 5 | 11:27.69 | 3:39.57 | 51594 | 68075 6 | 15:07.51 | 4:52.36 | 68076 | 90011 7 | 20:00.12 | 3:31.49 | 90012 | 105885 8 | 23:31.61 | 3:51.36 | 105886 | 123246 9 | 27:23.22 | 3:33.55 | 123247 | 139276 10 | 30:57.02 | 4:17.48 | 139277 | 158599 11 | 35:14.50 | 4:58.57 | 158600 | 181006 12 | 40:13.32 | 3:11.48 | 181007 | 195379 13 | 43:25.05 | 5:59.66 | 195380 | 222370 14 | 49:24.71 | 3:43.14 | 222371 | 239109 15 | 53:08.10 | 4:01.69 | 239110 | 257253 16 | 57:10.04 | 3:37.55 | 257254 | 273583 17 | 60:47.59 | 3:25.59 | 273584 | 289017 18 | 64:13.43 | 3:01.20 | 289018 | 302612 19 | 67:14.63 | 3:45.50 | 302613 | 319537 20 | 71:00.38 | 3:21.60 | 319538 | 334672
Характеристики диапазона извлечения и сообщения об ошибках
Выбранный диапазон
Имя файла D:\Lossless05 - Братья Жемчужные - GRAND Collection\Братья Жемчужные - GRAND Collection.wav
Пиковый уровень 97.7 %0.3 X Качество диапазона 99.9 % CRC теста 0C1E6D9D CRC копии 0C1E6D9D Копирование... OK
Ошибок не произошло
AccurateRip: сводка
Трек 1 нет в базе данныхТрек 2 нет в базе данныхТрек 3 нет в базе данныхТрек 4 нет в базе данныхТрек 5 нет в базе данныхТрек 6 нет в базе данныхТрек 7 нет в базе данныхТрек 8 нет в базе данныхТрек 9 нет в базе данныхТрек 10 нет в базе данныхТрек 11 нет в базе данныхТрек 12 нет в базе данныхТрек 13 нет в базе данныхТрек 14 нет в базе данныхТрек 15 нет в базе данныхТрек 16 нет в базе данныхТрек 17 нет в базе данныхТрек 18 нет в базе данныхТрек 19 нет в базе данныхТрек 20 нет в базе данных
Ни одного трека нет в базе AccurateRip
Конец отчёта
==== 4A5A8EEB04D82B5E475C3F3ED2593C0D53402047DF1BD619C191A147EC09127E ====

Audiochecker

AUDIOCHECKER v2.0 beta (build 457) - by Dester - opdester@freemail.hu~~~~~~~~~~~~~~~~~~~~~~~~~~~~~~~~~~-=== НЕ РЕДАКТИРУЙТЕ ЭТОТ ФАЙЛ! ===-
Путь: ...05 - Братья Жемчужные - GRAND Collection
1 -=- Братья Жемчужные - GRAND Collection.wav -=- CDDA (100%)
143516404

Adobe Audition

(Шансон, Поп) Большая коллекция шансона (Grand Collection) 2001-2013 (65 CD), FLAC (image+.cue), lossless [mytorrnado.ru].t58.torrent 
Torrent: Registered [ 2015-11-03 21:58 ] · C437EBFC5CF88F45F7B3D82E775EB68B7C1C7ED2 Google it!

Download .torrent

250 KB

Status: checked
Completed: 49 times
Тип торрента:    
Size: 34.62 GB
Поделиться:
FAQ:
 
Как качать?
Как качать?
X
Скачайте торрент и откройте его в своем клиенте
uTorrent

скачать программу,
дождитесь окончания загрузки.
Если торрент закрыт? Инстркуция.
* Как смотреть?
Как смотреть?
X

Для работы Magic Player
Вам необходимо установить
Ace Stream P2P Multimedia Plug-in

Установить

Для работы Magic Player Вам необходимо включить
Ace Stream P2P Multimedia Plug-in

Инструкция
terms.php
Похожие темы




Запрещено категорически:
» Развязывать разборки (для этого есть ЛС)
» Оставлять комментарии, не относящиеся к содержанию материала.
» Добавлять спам, рекламу флуд..
К спаму относится:
1. Реклама любого направления.
2. Ссылки на сторонние ресурсы рекламного характера.
3. Ссылки на ресурсы порнографического направления.
4. Сылки на блоги и им подбным контeнтам.
» Запрещено оскорбление администрации, модераторов и пользователей.
» Часто писать с вкл. Caps Lock
»За нарушение правил бан или отключение без объяснений.
Уважайте чужой труд!

Правила могут дополняться и изменяться. С уважением Администрация.
[Profile] [PM]
Display posts    
Reply to topic

Current time is: 24-Jul 17:09

All times are UTC + 5



You cannot post new topics in this forum
You cannot reply to topics in this forum
You cannot edit your posts in this forum
You cannot delete your posts in this forum
You cannot vote in polls in this forum
You can attach files in this forum
You can download files in this forum










!ATTENTION!
The site does not give electronic versions of products, and is engaged only in a collecting and cataloguing of the references sent and published at a forum by our readers. If you are the legal owner of any submitted material and do not wish that the reference to it was in our catalogue, contact us and we shall immediately remove her. Files for an exchange on tracker are given by users of a site, and the administration does not bear the responsibility for their maintenance. The request to not fill in the files protected by copyrights, and also files of the illegal maintenance!