(Шансон) Серия «Настоящий Шансон» - 2005-2010 (45 CD), FLAC (image+.cue), lossless

DL-List and Torrent activity [Update ]
Size:  25.6 GB   |    Registered:  5 years 9 months   |    Completed:  61 times

Seeder not seen: Never

 
     
 
 
 
Author Message

Иваныч ®

Gender: Male

Longevity: 5 years 9 months

Posts: 8246

Наличие запрета:


Карма  175 

Location: Россия,Курган



: 19 ()

Активный релизер  (2000 релизов) (1) Активисту (1) Реализация решений (1) Активный релизер (500 релизов) (1)
Активный релизер  (200 релизов) (1) От администрации (1) Активному релизеру (5000 раздач) (1) Активный релизер  (250 и более релизов) (1)
Дизайн (1) Активный релизер  (100 релизов) (1) Помощь (1) От администрации (1)

Post 03-Nov-2015 22:00

[Quote]

Серия «НАСТОЯЩИЙ ШАНСОН» (с) 2005-2010 [45CD]
Жанр: ШАНСОН
Страна: Россия
Год издания диска: 2005-2010
Производитель серии: © «Альфа Рекордз»
Страна: Россия
Формат: FLAC (image + .cue)
Битрейт аудио: lossless
Продолжительность: 45CD
Источник (релизер): Диски STOJAKa, кроме помеченных ***
Наличие сканов в содержимом раздачи: да (PNG)
СПАСИБО ЗА ПОМОЩЬ SVSSTUDIO ***** vlad victorovich

Александр Вестов (с) 2006 [Памяти Вора. Блатные песни.]

Жанр: Шансон
Страна-производитель диска: Россия
Год издания: 2006
Издатель (лейбл): © «Альфа Рекордз»
Номер по каталогу: AL-095
Страна: Россия
Аудиокодек: FLAC (*.flac)
Тип рипа: image+.cue
Битрейт аудио: lossless
Продолжительность: 55:36
Источник (релизер): STOJAK
Наличие сканов в содержимом раздачи: да (PNG)
Треклист:
01. "Осень в золоте (Алексей Нагдасов - Александр Вестов)"
02. "Памяти вора [Посвящается Саше Оренбургскому...] (Алексей Нагдасов - Александр Вестов)"
03. "Свитерок (Алексей Нагдасов - Александр Вестов)"
04. "Сизари (Алексей Нагдасов - Александр Вестов)"
05. "Москва - Оренбург (Алексей Нагдасов - Александр Вестов)"
06. "Постучат мусора (Алексей Нагдасов - Александр Вестов)"
07. "Грев из музыки (Алексей Нагдасов - Александр Вестов)"
08. "Мои друзья (Алексей Нагдасов - Александр Вестов)"
09. "Звёзды (Алексей Нагдасов - Александр Вестов)"
10. "Календарь (Алексей Нагдасов - Александр Вестов)"
11. "Новый Год (Алексей Нагдасов - Александр Вестов)"
12. "Лёха (Алексей Нагдасов - Александр Вестов)"
13. "Грев из музыки [Дуэт с Группой «БЕЛОМОРКАНАЛ»] (Алексей Нагдасов - Александр Вестов)"

Отчёт EAC об извлечении, выполненном 4. мая 2012, 7:13

Exact Audio Copy V1.0 beta 2 from 29. April 2011
Отчёт EAC об извлечении, выполненном 4. мая 2012, 7:13
Александр Вестов / Серия «НАСТОЯЩИЙ ШАНСОН» - Памяти Вора. Блатные песни
Дисковод: Optiarc DVD RW AD-7190A Adapter: 0 ID: 0
Режим чтения : ДостоверностьИспользование точного потока : ДаОтключение кэша аудио : ДаИспользование указателей C2 : Нет
Коррекция смещения при чтении : 6Способность читать области Lead-in и Lead-out : НетЗаполнение пропущенных сэмплов тишиной : ДаУдаление блоков с тишиной в начале и конце : НетПри вычислениях CRC использовались нулевые сэмплы : ДаИнтерфейс : Встроенный Win32-интерфейс для Win NT/2000
Выходной формат : Внутренние WAV-операцииФормат сэмплов : 44.100 Гц; 16 бит; стерео
TOC извлечённого CD
Трек | Старт | Длительность | Начальный сектор | Конечный сектор --------------------------------------------------------------------- 1 | 0:00.00 | 5:38.37 | 0 | 25386 2 | 5:38.37 | 4:56.60 | 25387 | 47646 3 | 10:35.22 | 3:38.05 | 47647 | 64001 4 | 14:13.27 | 3:48.45 | 64002 | 81146 5 | 18:01.72 | 4:03.24 | 81147 | 99395 6 | 22:05.21 | 4:17.49 | 99396 | 118719 7 | 26:22.70 | 3:21.16 | 118720 | 133810 8 | 29:44.11 | 5:02.21 | 133811 | 156481 9 | 34:46.32 | 4:46.37 | 156482 | 177968 10 | 39:32.69 | 3:28.49 | 177969 | 193617 11 | 43:01.43 | 3:54.41 | 193618 | 211208 12 | 46:56.09 | 5:20.52 | 211209 | 235260 13 | 52:16.61 | 3:19.16 | 235261 | 250201
Характеристики диапазона извлечения и сообщения об ошибках
Выбранный диапазон
Имя файла J:\ШАНСОН\SCHANSON [SBORNIKI] LOSSLESS\СЕРИЯ «НАСТОЯЩИЙ ШАНСОН» (с) 2005-2010 [30CD]\Александр Вестов (с) 2006 [Памяти Вора. Блатные песни.]\Александр Вестов - Серия «НАСТОЯЩИЙ ШАНСОН» - Памяти Вора. Блатные песни.wav
Пиковый уровень 100.0 % Скорость извлечения 3.3 X Качество диапазона 99.8 % CRC теста B48DD72B CRC копии B48DD72B Копирование... OK
Ошибок не произошло
AccurateRip: сводка
Трек 1 отсутствует в базе данныхТрек 2 отсутствует в базе данныхТрек 3 отсутствует в базе данныхТрек 4 отсутствует в базе данныхТрек 5 отсутствует в базе данныхТрек 6 отсутствует в базе данныхТрек 7 отсутствует в базе данныхТрек 8 отсутствует в базе данныхТрек 9 отсутствует в базе данныхТрек 10 отсутствует в базе данныхТрек 11 отсутствует в базе данныхТрек 12 отсутствует в базе данныхТрек 13 отсутствует в базе данных
Ни одного трека нет в базе AccurateRip
Конец отчёта
==== Контрольная сумма отчёта A75B1DFC84B205C3F53E1B3EC7B2E55C5FC4304A032E4AFB56443F19AFFF5F09 ====

Содержание индексной карты (.CUE)

REM GENRE ChansonREM DATE 2006REM DISCID C20D080DREM COMMENT "ExactAudioCopy v1.0b2"PERFORMER "Александр Вестов"TITLE "Серия «НАСТОЯЩИЙ ШАНСОН» - Памяти Вора. Блатные песни"FILE "Александр Вестов - Серия «НАСТОЯЩИЙ ШАНСОН» - Памяти Вора. Блатные песни.flac" WAVE TRACK 01 AUDIO TITLE "Осень в золоте (Алексей Нагдасов - Александр Вестов)" PERFORMER "Александр Вестов" FLAGS DCP INDEX 01 00:00:00 TRACK 02 AUDIO TITLE "Памяти вора [Посвящается Саше Оренбургскому...] (Алексей Нагдасов - Александр Вестов)" PERFORMER "Александр Вестов" FLAGS DCP INDEX 00 05:36:37 INDEX 01 05:38:37 TRACK 03 AUDIO TITLE "Свитерок (Алексей Нагдасов - Александр Вестов)" PERFORMER "Александр Вестов" FLAGS DCP INDEX 00 10:33:22 INDEX 01 10:35:22 TRACK 04 AUDIO TITLE "Сизари (Алексей Нагдасов - Александр Вестов)" PERFORMER "Александр Вестов" FLAGS DCP INDEX 00 14:11:27 INDEX 01 14:13:27 TRACK 05 AUDIO TITLE "Москва - Оренбург (Алексей Нагдасов - Александр Вестов)" PERFORMER "Александр Вестов" FLAGS DCP INDEX 00 17:59:72 INDEX 01 18:01:72 TRACK 06 AUDIO TITLE "Постучат мусора (Алексей Нагдасов - Александр Вестов)" PERFORMER "Александр Вестов" FLAGS DCP INDEX 00 22:03:21 INDEX 01 22:05:21 TRACK 07 AUDIO TITLE "Грев из музыки (Алексей Нагдасов - Александр Вестов)" PERFORMER "Александр Вестов" FLAGS DCP INDEX 00 26:20:70 INDEX 01 26:22:70 TRACK 08 AUDIO TITLE "Мои друзья (Алексей Нагдасов - Александр Вестов)" PERFORMER "Александр Вестов" FLAGS DCP INDEX 00 29:42:11 INDEX 01 29:44:11 TRACK 09 AUDIO TITLE "Звёзды (Алексей Нагдасов - Александр Вестов)" PERFORMER "Александр Вестов" FLAGS DCP INDEX 00 34:44:32 INDEX 01 34:46:32 TRACK 10 AUDIO TITLE "Календарь (Алексей Нагдасов - Александр Вестов)" PERFORMER "Александр Вестов" FLAGS DCP INDEX 00 39:30:69 INDEX 01 39:32:69 TRACK 11 AUDIO TITLE "Новый Год (Алексей Нагдасов - Александр Вестов)" PERFORMER "Александр Вестов" FLAGS DCP INDEX 00 42:59:43 INDEX 01 43:01:43 TRACK 12 AUDIO TITLE "Лёха (Алексей Нагдасов - Александр Вестов)" PERFORMER "Александр Вестов" FLAGS DCP INDEX 00 46:54:09 INDEX 01 46:56:09 TRACK 13 AUDIO TITLE "Грев из музыки [Дуэт с Группой «БЕЛОМОРКАНАЛ»] (Алексей Нагдасов - Александр Вестов)" PERFORMER "Александр Вестов" FLAGS DCP INDEX 00 52:14:61 INDEX 01 52:16:61

Лог проверки качества

AUDIOCHECKER v2.0 beta (build 457) - by Dester - opdester@freemail.hu~~~~~~~~~~~~~~~~~~~~~~~~~~~~~~~~~~-=== DO NOT EDIT THIS FILE! ===-
Path: ...\Александр Вестов (с) 2006 [Памяти Вора. Блатные песни.]
1 -=- Александр Вестов - Серия «НАСТОЯЩИЙ ШАНСОН» - Памяти Вора. Блатные песни.wav -=- CDDA (100%)
223682772

COVERS CD

Александр Казанцев (с) 2007 [Сибирь]

Жанр: Шансон
Страна-производитель диска: Россия
Год издания: 2007
Издатель (лейбл): © «Альфа Рекордз»
Номер по каталогу: AL-130
Страна: Россия
Аудиокодек: FLAC (*.flac)
Тип рипа: image+.cue
Битрейт аудио: lossless
Продолжительность: 41:35
Источник (релизер): STOJAK
Наличие сканов в содержимом раздачи: да (PNG)
Треклист:
01. "Сибирь (Музыка и слова Александр Казанцев)"
02. "В клубе Шансон (Музыка и слова Александр Казанцев)"
03. "Звёздочка (Музыка и слова Александр Казанцев)"
04. "Арестованная любовь (Музыка и слова Александр Казанцев)"
05. "Волюшка вольная (Музыка и слова Александр Казанцев)"
06. "Будет моя весна (Музыка и слова Александр Казанцев)"
07. "В малолетке девочки (Музыка и слова Александр Казанцев)"
08. "Каторжанская душа (Музыка и слова Александр Казанцев)"
09. "Батя (Музыка и слова Александр Казанцев)"
10. "В белый лебедь (Музыка и слова Александр Казанцев)"

Отчёт EAC об извлечении, выполненном 5. мая 2012, 8:22

Exact Audio Copy V1.0 beta 2 from 29. April 2011
Отчёт EAC об извлечении, выполненном 5. мая 2012, 8:22
Александр Казанцев / Серия «НАСТОЯЩИЙ ШАНСОН» - Сибирь
Дисковод: Optiarc DVD RW AD-7190A Adapter: 0 ID: 0
Режим чтения : ДостоверностьИспользование точного потока : ДаОтключение кэша аудио : ДаИспользование указателей C2 : Нет
Коррекция смещения при чтении : 6Способность читать области Lead-in и Lead-out : НетЗаполнение пропущенных сэмплов тишиной : ДаУдаление блоков с тишиной в начале и конце : НетПри вычислениях CRC использовались нулевые сэмплы : ДаИнтерфейс : Встроенный Win32-интерфейс для Win NT/2000
Выходной формат : Внутренние WAV-операцииФормат сэмплов : 44.100 Гц; 16 бит; стерео
TOC извлечённого CD
Трек | Старт | Длительность | Начальный сектор | Конечный сектор --------------------------------------------------------------------- 1 | 0:00.00 | 4:03.70 | 0 | 18294 2 | 4:03.70 | 3:39.16 | 18295 | 34735 3 | 7:43.11 | 4:55.36 | 34736 | 56896 4 | 12:38.47 | 4:59.41 | 56897 | 79362 5 | 17:38.13 | 3:09.54 | 79363 | 93591 6 | 20:47.67 | 3:42.70 | 93592 | 110311 7 | 24:30.62 | 3:11.16 | 110312 | 124652 8 | 27:42.03 | 3:11.02 | 124653 | 138979 9 | 30:53.05 | 3:57.02 | 138980 | 156756 10 | 34:50.07 | 6:45.20 | 156757 | 187151
Характеристики диапазона извлечения и сообщения об ошибках
Выбранный диапазон
Имя файла J:\ШАНСОН\SCHANSON [SBORNIKI] LOSSLESS\СЕРИЯ «НАСТОЯЩИЙ ШАНСОН» (с) 2005-2010 [30CD]\Александр Казанцев (с) 2007 [Сибирь]\Александр Казанцев - Серия «НАСТОЯЩИЙ ШАНСОН» - Сибирь.wav
Пиковый уровень 96.2 % Скорость извлечения 2.8 X Качество диапазона 99.7 % CRC теста 73B3E2C7 CRC копии 73B3E2C7 Копирование... OK
Ошибок не произошло
AccurateRip: сводка
Трек 1 отсутствует в базе данныхТрек 2 отсутствует в базе данныхТрек 3 отсутствует в базе данныхТрек 4 отсутствует в базе данныхТрек 5 отсутствует в базе данныхТрек 6 отсутствует в базе данныхТрек 7 отсутствует в базе данныхТрек 8 отсутствует в базе данныхТрек 9 отсутствует в базе данныхТрек 10 отсутствует в базе данных
Ни одного трека нет в базе AccurateRip
Конец отчёта
==== Контрольная сумма отчёта 3ACA13BCC22E367E84D5A8488753AA73F103907A08FE604BC1436A8500851968 ====

Содержание индексной карты (.CUE)

REM GENRE ChansonREM DATE 2007REM DISCID 7F09BF0AREM COMMENT "ExactAudioCopy v1.0b2"PERFORMER "Александр Казанцев"TITLE "Серия «НАСТОЯЩИЙ ШАНСОН» - Сибирь"FILE "Александр Казанцев - Серия «НАСТОЯЩИЙ ШАНСОН» - Сибирь.flac" WAVE TRACK 01 AUDIO TITLE "Сибирь (Музыка и слова Александр Казанцев)" PERFORMER "Александр Казанцев" FLAGS DCP INDEX 01 00:00:00 TRACK 02 AUDIO TITLE "В клубе Шансон (Музыка и слова Александр Казанцев)" PERFORMER "Александр Казанцев" FLAGS DCP INDEX 01 04:03:70 TRACK 03 AUDIO TITLE "Звёздочка (Музыка и слова Александр Казанцев)" PERFORMER "Александр Казанцев" FLAGS DCP INDEX 01 07:43:11 TRACK 04 AUDIO TITLE "Арестованная любовь (Музыка и слова Александр Казанцев)" PERFORMER "Александр Казанцев" FLAGS DCP INDEX 01 12:38:47 TRACK 05 AUDIO TITLE "Волюшка вольная (Музыка и слова Александр Казанцев)" PERFORMER "Александр Казанцев" FLAGS DCP INDEX 01 17:38:13 TRACK 06 AUDIO TITLE "Будет моя весна (Музыка и слова Александр Казанцев)" PERFORMER "Александр Казанцев" FLAGS DCP INDEX 01 20:47:67 TRACK 07 AUDIO TITLE "В малолетке девочки (Музыка и слова Александр Казанцев)" PERFORMER "Александр Казанцев" FLAGS DCP INDEX 01 24:30:62 TRACK 08 AUDIO TITLE "Каторжанская душа (Музыка и слова Александр Казанцев)" PERFORMER "Александр Казанцев" FLAGS DCP INDEX 01 27:42:03 TRACK 09 AUDIO TITLE "Батя (Музыка и слова Александр Казанцев)" PERFORMER "Александр Казанцев" FLAGS DCP INDEX 01 30:53:05 TRACK 10 AUDIO TITLE "В белый лебедь (Музыка и слова Александр Казанцев)" PERFORMER "Александр Казанцев" FLAGS DCP INDEX 01 34:50:07

Лог проверки качества

AUDIOCHECKER v2.0 beta (build 457) - by Dester - opdester@freemail.hu~~~~~~~~~~~~~~~~~~~~~~~~~~~~~~~~~~-=== DO NOT EDIT THIS FILE! ===-
Path: ...\Александр Казанцев (с) 2007 [Сибирь]
1 -=- Александр Казанцев - СЕРИЯ «НАСТОЯЩИЙ ШАНСОН» - Сибирь.flac -=- MPEG (95%)
147157028

COVERS CD

Александр Черкасов (с) 2006 [Шансон-блюз]

Жанр: Шансон
Страна-производитель диска: Россия
Год издания: 2007
Издатель (лейбл): © «Альфа Рекордз»
Номер по каталогу: AL-077
Страна: Россия
Аудиокодек: FLAC (*.flac)
Тип рипа: image+.cue
Битрейт аудио: lossless
Продолжительность: 38:14
Источник (релизер): STOJAK
Наличие сканов в содержимом раздачи: да (PNG)
Треклист:
01. "Бульварный этюд (Музыка и слова Александр Черкасов)"
02. "Художник (Музыка и слова Александр Черкасов)"
03. "Вечерний блюз прибоя (Музыка и слова Александр Черкасов)"
04. "Старая тема (Музыка и слова Александр Черкасов)"
05. "Наполнен дом друзей (Музыка и слова Александр Черкасов)"
06. "Над облетевшим садом (Музыка и слова Александр Черкасов)"
07. "Вечер (Музыка и слова Александр Черкасов)"
08. "Дом (Музыка и слова Александр Черкасов)"
09. "Дворовый вальс [Памяти Игоря Гренадерова] (Музыка и слова Александр Черкасов)"
10. "Россия (Музыка и слова Александр Черкасов)"

Отчёт EAC об извлечении, выполненном 6. мая 2012, 7:35

Exact Audio Copy V1.0 beta 2 from 29. April 2011
Отчёт EAC об извлечении, выполненном 6. мая 2012, 7:35
Александр Черкасов / Серия «НАСТОЯЩИЙ ШАНСОН» - Шансон-блюз
Дисковод: Optiarc DVD RW AD-7190A Adapter: 0 ID: 0
Режим чтения : ДостоверностьИспользование точного потока : ДаОтключение кэша аудио : ДаИспользование указателей C2 : Нет
Коррекция смещения при чтении : 6Способность читать области Lead-in и Lead-out : НетЗаполнение пропущенных сэмплов тишиной : ДаУдаление блоков с тишиной в начале и конце : НетПри вычислениях CRC использовались нулевые сэмплы : ДаИнтерфейс : Встроенный Win32-интерфейс для Win NT/2000
Выходной формат : Внутренние WAV-операцииФормат сэмплов : 44.100 Гц; 16 бит; стерео
TOC извлечённого CD
Трек | Старт | Длительность | Начальный сектор | Конечный сектор --------------------------------------------------------------------- 1 | 0:00.00 | 3:16.02 | 0 | 14701 2 | 3:16.02 | 3:44.44 | 14702 | 31545 3 | 7:00.46 | 4:51.37 | 31546 | 53407 4 | 11:52.08 | 4:05.37 | 53408 | 71819 5 | 15:57.45 | 4:02.63 | 71820 | 90032 6 | 20:00.33 | 4:08.40 | 90033 | 108672 7 | 24:08.73 | 2:59.38 | 108673 | 122135 8 | 27:08.36 | 4:35.29 | 122136 | 142789 9 | 31:43.65 | 2:34.55 | 142790 | 154394 10 | 34:18.45 | 3:55.20 | 154395 | 172039
Характеристики диапазона извлечения и сообщения об ошибках
Выбранный диапазон
Имя файла J:\ШАНСОН\SCHANSON [SBORNIKI] LOSSLESS\СЕРИЯ «НАСТОЯЩИЙ ШАНСОН» (с) 2005-2010 [45CD]\Александр Черкасов (с) 2006 [Шансон-блюз]\Александр Черкасов - Серия «НАСТОЯЩИЙ ШАНСОН» - Шансон-блюз.wav
Пиковый уровень 100.0 % Скорость извлечения 5.8 X Качество диапазона 100.0 % CRC теста BA5FAB12 CRC копии BA5FAB12 Копирование... OK
Ошибок не произошло
AccurateRip: сводка
Трек 1 отсутствует в базе данныхТрек 2 отсутствует в базе данныхТрек 3 отсутствует в базе данныхТрек 4 отсутствует в базе данныхТрек 5 отсутствует в базе данныхТрек 6 отсутствует в базе данныхТрек 7 отсутствует в базе данныхТрек 8 отсутствует в базе данныхТрек 9 отсутствует в базе данныхТрек 10 отсутствует в базе данных
Ни одного трека нет в базе AccurateRip
Конец отчёта
==== Контрольная сумма отчёта 694C10A457C67D8D1D88F6479A25E2380891E273AE09056FF499F66ACE2F7A49 ====

Содержание индексной карты (.CUE)

REM GENRE ChansonREM DATE 2006REM DISCID 6F08F50AREM COMMENT "ExactAudioCopy v1.0b2"PERFORMER "Александр Черкасов"TITLE "Серия «НАСТОЯЩИЙ ШАНСОН» - Шансон-блюз"FILE "Александр Черкасов - Серия «НАСТОЯЩИЙ ШАНСОН» - Шансон-блюз.flac" WAVE TRACK 01 AUDIO TITLE "Бульварный этюд (Музыка и слова Александр Черкасов)" PERFORMER "Александр Черкасов" INDEX 01 00:00:00 TRACK 02 AUDIO TITLE "Художник (Музыка и слова Александр Черкасов)" PERFORMER "Александр Черкасов" INDEX 01 03:16:02 TRACK 03 AUDIO TITLE "Вечерний блюз прибоя (Музыка и слова Александр Черкасов)" PERFORMER "Александр Черкасов" INDEX 01 07:00:46 TRACK 04 AUDIO TITLE "Старая тема (Музыка и слова Александр Черкасов)" PERFORMER "Александр Черкасов" INDEX 01 11:52:08 TRACK 05 AUDIO TITLE "Наполнен дом друзей (Музыка и слова Александр Черкасов)" PERFORMER "Александр Черкасов" INDEX 01 15:57:45 TRACK 06 AUDIO TITLE "Над облетевшим садом (Музыка и слова Александр Черкасов)" PERFORMER "Александр Черкасов" INDEX 01 20:00:33 TRACK 07 AUDIO TITLE "Вечер (Музыка и слова Александр Черкасов)" PERFORMER "Александр Черкасов" INDEX 01 24:08:73 TRACK 08 AUDIO TITLE "Дом (Музыка и слова Александр Черкасов)" PERFORMER "Александр Черкасов" INDEX 01 27:08:36 TRACK 09 AUDIO TITLE "Дворовый вальс [Памяти Игоря Гренадерова] (Музыка и слова Александр Черкасов)" PERFORMER "Александр Черкасов" INDEX 01 31:43:65 TRACK 10 AUDIO TITLE "Россия (Музыка и слова Александр Черкасов)" PERFORMER "Александр Черкасов" INDEX 01 34:18:45

Лог проверки качества

AUDIOCHECKER v2.0 beta (build 457) - by Dester - opdester@freemail.hu~~~~~~~~~~~~~~~~~~~~~~~~~~~~~~~~~~-=== DO NOT EDIT THIS FILE! ===-
Path: ...\Александр Черкасов (с) 2006 [Шансон-блюз]
1 -=- Александр Черкасов - Серия «НАСТОЯЩИЙ ШАНСОН» - Шансон-блюз.wav -=- MPEG (95%)
88795332

COVERS CD

Алексей Городецкий (с) 2007 [Зверь]

Жанр: Шансон
Страна-производитель диска: Россия
Год издания: 2007
Издатель (лейбл): © «Альфа Рекордз»
Номер по каталогу: AL-092
Страна: Россия
Аудиокодек: FLAC (*.flac)
Тип рипа: image+.cue
Битрейт аудио: lossless
Продолжительность: 01:05:03
Источник (релизер): STOJAK
Наличие сканов в содержимом раздачи: да (PNG)
Треклист:
01. "Талисман (Музыка и слова Алексей Городецкий)"
02. "Коса на камень (Музыка и слова Алексей Городецкий)"
03. "Зверь (Музыка и слова Алексей Городецкий)"
04. "Бродяга (Музыка и слова Алексей Городецкий)"
05. "Колокола (Музыка и слова Алексей Городецкий)"
06. "Ветер (Музыка и слова Алексей Городецкий)"
07. "Крёсный отец (Музыка и слова Алексей Городецкий)"
08. "Тоскую (Музыка и слова Алексей Городецкий)"
09. "Улыбка твоя (Музыка и слова Алексей Городецкий)"
10. "Белый волк (Музыка и слова Алексей Городецкий)"
11. "Туман (Музыка и слова Алексей Городецкий)"
12. "Мама (Музыка и слова Алексей Городецкий)"
13. "Сибирь (Музыка и слова Алексей Городецкий)"
14. "Прощальный гудок (Музыка и слова Алексей Городецкий)"
15. "Последняя осень войны (Музыка и слова Алексей Городецкий)"
16. "Побег (Музыка и слова Алексей Городецкий)"

Отчёт EAC об извлечении, выполненном 6. мая 2012, 7:07

Exact Audio Copy V1.0 beta 2 from 29. April 2011
Отчёт EAC об извлечении, выполненном 6. мая 2012, 7:07
Алексей Городецкий / Серия «НАСТОЯЩИЙ ШАНСОН» - Зверь
Дисковод: Optiarc DVD RW AD-7190A Adapter: 0 ID: 0
Режим чтения : ДостоверностьИспользование точного потока : ДаОтключение кэша аудио : ДаИспользование указателей C2 : Нет
Коррекция смещения при чтении : 6Способность читать области Lead-in и Lead-out : НетЗаполнение пропущенных сэмплов тишиной : ДаУдаление блоков с тишиной в начале и конце : НетПри вычислениях CRC использовались нулевые сэмплы : ДаИнтерфейс : Встроенный Win32-интерфейс для Win NT/2000
Выходной формат : Внутренние WAV-операцииФормат сэмплов : 44.100 Гц; 16 бит; стерео
TOC извлечённого CD
Трек | Старт | Длительность | Начальный сектор | Конечный сектор --------------------------------------------------------------------- 1 | 0:00.00 | 4:22.51 | 0 | 19700 2 | 4:22.51 | 3:26.25 | 19701 | 35175 3 | 7:49.01 | 4:09.41 | 35176 | 53891 4 | 11:58.42 | 3:52.34 | 53892 | 71325 5 | 15:51.01 | 4:00.28 | 71326 | 89353 6 | 19:51.29 | 5:00.21 | 89354 | 111874 7 | 24:51.50 | 4:01.33 | 111875 | 129982 8 | 28:53.08 | 4:00.37 | 129983 | 148019 9 | 32:53.45 | 4:22.66 | 148020 | 167735 10 | 37:16.36 | 4:53.50 | 167736 | 189760 11 | 42:10.11 | 3:55.32 | 189761 | 207417 12 | 46:05.43 | 3:37.72 | 207418 | 223764 13 | 49:43.40 | 3:51.37 | 223765 | 241126 14 | 53:35.02 | 3:35.67 | 241127 | 257318 15 | 57:10.69 | 3:31.69 | 257319 | 273212 16 | 60:42.63 | 4:20.00 | 273213 | 292712
Характеристики диапазона извлечения и сообщения об ошибках
Выбранный диапазон
Имя файла J:\ШАНСОН\SCHANSON [SBORNIKI] LOSSLESS\СЕРИЯ «НАСТОЯЩИЙ ШАНСОН» (с) 2005-2010 [45CD]\Алексей Городецкий (с) 2007 [Зверь]\Алексей Городецкий - Серия «НАСТОЯЩИЙ ШАНСОН» - Зверь.wav
Пиковый уровень 100.0 % Скорость извлечения 6.5 X Качество диапазона 100.0 % CRC теста EC2347EC CRC копии EC2347EC Копирование... OK
Ошибок не произошло
AccurateRip: сводка
Трек 1 : извлечено точно (доверие 1) [6B0A2369] (AR v1)Трек 2 : извлечено точно (доверие 1) [4B2F9850] (AR v1)Трек 3 : извлечено точно (доверие 1) [ACA6F713] (AR v1)Трек 4 : извлечено точно (доверие 1) [DBFC56AF] (AR v1)Трек 5 : извлечено точно (доверие 1) [40EE3E82] (AR v1)Трек 6 : извлечено точно (доверие 1) [B510ADF1] (AR v1)Трек 7 : извлечено точно (доверие 1) [9EC52DEE] (AR v1)Трек 8 : извлечено точно (доверие 1) [957B0225] (AR v1)Трек 9 : извлечено точно (доверие 1) [B73D0158] (AR v1)Трек 10 : извлечено точно (доверие 1) [06B27A21] (AR v1)Трек 11 : извлечено точно (доверие 1) [C825E32E] (AR v1)Трек 12 : извлечено точно (доверие 1) [6CA66293] (AR v1)Трек 13 : извлечено точно (доверие 1) [94FFF96F] (AR v1)Трек 14 : извлечено точно (доверие 1) [13FF14AA] (AR v1)Трек 15 : извлечено точно (доверие 1) [B1C1B5EB] (AR v1)Трек 16 : извлечено точно (доверие 1) [24640D66] (AR v1)
Все треки извлечены точно
Конец отчёта
==== Контрольная сумма отчёта DC171707913B7C3247E3FC4D5272892778BFEDD1E3529CD53A40CF7965C25A4A ====

Содержание индексной карты (.CUE)

REM GENRE ChansonREM DATE 2007REM DISCID EC0F3E10REM COMMENT "ExactAudioCopy v1.0b2"PERFORMER "Алексей Городецкий"TITLE "Серия «НАСТОЯЩИЙ ШАНСОН» - Зверь"FILE "Алексей Городецкий - Серия «НАСТОЯЩИЙ ШАНСОН» - Зверь.flac" WAVE TRACK 01 AUDIO TITLE "Талисман (Музыка и слова Алексей Городецкий)" PERFORMER "Алексей Городецкий" FLAGS DCP INDEX 01 00:00:00 TRACK 02 AUDIO TITLE "Коса на камень (Музыка и слова Алексей Городецкий)" PERFORMER "Алексей Городецкий" FLAGS DCP INDEX 01 04:22:51 TRACK 03 AUDIO TITLE "Зверь (Музыка и слова Алексей Городецкий)" PERFORMER "Алексей Городецкий" FLAGS DCP INDEX 01 07:49:01 TRACK 04 AUDIO TITLE "Бродяга (Музыка и слова Алексей Городецкий)" PERFORMER "Алексей Городецкий" FLAGS DCP INDEX 01 11:58:42 TRACK 05 AUDIO TITLE "Колокола (Музыка и слова Алексей Городецкий)" PERFORMER "Алексей Городецкий" FLAGS DCP INDEX 01 15:51:01 TRACK 06 AUDIO TITLE "Ветер (Музыка и слова Алексей Городецкий)" PERFORMER "Алексей Городецкий" FLAGS DCP INDEX 01 19:51:29 TRACK 07 AUDIO TITLE "Крёсный отец (Музыка и слова Алексей Городецкий)" PERFORMER "Алексей Городецкий" FLAGS DCP INDEX 01 24:51:50 TRACK 08 AUDIO TITLE "Тоскую (Музыка и слова Алексей Городецкий)" PERFORMER "Алексей Городецкий" FLAGS DCP INDEX 01 28:53:08 TRACK 09 AUDIO TITLE "Улыбка твоя (Музыка и слова Алексей Городецкий)" PERFORMER "Алексей Городецкий" FLAGS DCP INDEX 01 32:53:45 TRACK 10 AUDIO TITLE "Белый волк (Музыка и слова Алексей Городецкий)" PERFORMER "Алексей Городецкий" FLAGS DCP INDEX 01 37:16:36 TRACK 11 AUDIO TITLE "Туман (Музыка и слова Алексей Городецкий)" PERFORMER "Алексей Городецкий" FLAGS DCP INDEX 01 42:10:11 TRACK 12 AUDIO TITLE "Мама (Музыка и слова Алексей Городецкий)" PERFORMER "Алексей Городецкий" FLAGS DCP INDEX 01 46:05:43 TRACK 13 AUDIO TITLE "Сибирь (Музыка и слова Алексей Городецкий)" PERFORMER "Алексей Городецкий" FLAGS DCP INDEX 01 49:43:40 TRACK 14 AUDIO TITLE "Прощальный гудок (Музыка и слова Алексей Городецкий)" PERFORMER "Алексей Городецкий" FLAGS DCP INDEX 01 53:35:02 TRACK 15 AUDIO TITLE "Последняя осень войны (Музыка и слова Алексей Городецкий)" PERFORMER "Алексей Городецкий" FLAGS DCP INDEX 01 57:10:69 TRACK 16 AUDIO TITLE "Побег (Музыка и слова Алексей Городецкий)" PERFORMER "Алексей Городецкий" FLAGS DCP INDEX 01 60:42:63

Лог проверки качества

AUDIOCHECKER v2.0 beta (build 457) - by Dester - opdester@freemail.hu~~~~~~~~~~~~~~~~~~~~~~~~~~~~~~~~~~-=== DO NOT EDIT THIS FILE! ===-
Path: ...\Алексей Городецкий (с) 2007 [Зверь]
1 -=- Алексей Городецкий - СЕРИЯ «НАСТОЯЩИЙ ШАНСОН» - Зверь.wav -=- MPEG (95%)
193402244

COVERS CD

Алексей Князев (с) 2005 [Вот мы попали]

Жанр: Шансон
Страна-производитель диска: Россия
Год издания: 2005
Издатель (лейбл): © «Альфа Рекордз»
Номер по каталогу: AL-031
Страна: Россия
Аудиокодек: FLAC (*.flac)
Тип рипа: image+.cue
Битрейт аудио: lossless
Продолжительность: 68:18
Источник (релизер): STOJAK
Наличие сканов в содержимом раздачи: да (PNG)
Треклист:
01. Тома (Музыка и слова Алексей Князев)
02. Саня (Музыка и слова Алексей Князев)
03. Душа (Музыка и слова Алексей Князев)
04. Феня (Музыка и слова Алексей Князев)
05. Сон (Музыка и слова Алексей Князев)
06. Мама (Музыка и слова Алексей Князев)
07. Вот мы попали (Музыка и слова Алексей Князев)
08. Подельница (Музыка и слова Алексей Князев)
09. Всё позади (Музыка и слова Алексей Князев)
10. Алиби (Музыка и слова Алексей Князев)
11. Плач гитары (Музыка и слова Алексей Князев)
12. Сема с Сарой (Музыка и слова Алексей Князев)
13. За колючкой небо в тучках (Музыка и слова Алексей Князев)
14. Воспоминание (Музыка и слова Алексей Князев)
15. Бабья доля (Музыка и слова Алексей Князев)
16. Диалог с опером (Музыка и слова Алексей Князев)

Отчёт EAC об извлечении, выполненном 20. мая 2010, 7:47

Exact Audio Copy V0.99 prebeta 5 from 4. May 2009
Отчёт EAC об извлечении, выполненном 20. мая 2010, 7:47
Алексей Князев / СЕРИЯ «НАСТОЯЩИЙ ШАНСОН» - Вот мы попали
Дисковод: Optiarc DVD RW AD-7190A Adapter: 0 ID: 0
Режим чтения : ДостоверностьИспользование точного потока : ДаОтключение кэша аудио : ДаИспользование указателей C2 : Нет
Коррекция смещения при чтении : 6Способность читать области Lead-in и Lead-out : НетЗаполнение пропущенных сэмплов тишиной : ДаУдаление блоков с тишиной в начале и конце : НетПри вычислениях CRC использовались нулевые сэмплы : ДаИнтерфейс : Встроенный Win32-интерфейс для Win NT/2000
Выходной формат : Внутренние WAV-операцииФормат сэмплов : 44.100 Гц; 16 бит; стерео
TOC извлечённого CD
Трек | Старт | Длительность | Начальный сектор | Конечный сектор --------------------------------------------------------------------- 1 | 0:00.00 | 3:55.73 | 0 | 17697 2 | 3:55.73 | 3:03.19 | 17698 | 31441 3 | 6:59.17 | 5:24.73 | 31442 | 55814 4 | 12:24.15 | 4:00.39 | 55815 | 73853 5 | 16:24.54 | 3:06.32 | 73854 | 87835 6 | 19:31.11 | 5:37.48 | 87836 | 113158 7 | 25:08.59 | 4:09.22 | 113159 | 131855 8 | 29:18.06 | 3:27.04 | 131856 | 147384 9 | 32:45.10 | 5:00.21 | 147385 | 169905 10 | 37:45.31 | 4:08.45 | 169906 | 188550 11 | 41:54.01 | 5:29.25 | 188551 | 213250 12 | 47:23.26 | 4:14.51 | 213251 | 232351 13 | 51:38.02 | 3:54.54 | 232352 | 249955 14 | 55:32.56 | 4:01.38 | 249956 | 268068 15 | 59:34.19 | 4:52.24 | 268069 | 289992 16 | 64:26.43 | 3:51.10 | 289993 | 307327
Характеристики диапазона извлечения и сообщения об ошибках
Выбранный диапазон
Имя файла D:\SCHANSON [SBORNIKI] LOSSLESS\СЕРИЯ «НАСТОЯЩИЙ ШАНСОН» (с) 2005-2010 [30CD]\Алексей Князев (с) 2005 [Вот мы попали]\Алексей Князев - СЕРИЯ «НАСТОЯЩИЙ ШАНСОН» - Вот мы попали.wav
Пиковый уровень 98.1 % Качество диапазона 100.0 % CRC теста 22C88EAF CRC копии 22C88EAF Копирование... OK
Ошибок не произошло
AccurateRip: сводка
Трек 1 нет в базе данныхТрек 2 нет в базе данныхТрек 3 нет в базе данныхТрек 4 нет в базе данныхТрек 5 нет в базе данныхТрек 6 нет в базе данныхТрек 7 нет в базе данныхТрек 8 нет в базе данныхТрек 9 нет в базе данныхТрек 10 нет в базе данныхТрек 11 нет в базе данныхТрек 12 нет в базе данныхТрек 13 нет в базе данныхТрек 14 нет в базе данныхТрек 15 нет в базе данныхТрек 16 нет в базе данных
Ни одного трека нет в базе AccurateRip
Конец отчёта

Содержание индексной карты (.CUE)

REM GENRE ChansonREM DATE 2005REM DISCID E6100110REM COMMENT "ExactAudioCopy v0.99pb5"PERFORMER "Алексей Князев"TITLE "Серия «НАСТОЯЩИЙ ШАНСОН» - Вот мы попали"FILE "Алексей Князев - СЕРИЯ «НАСТОЯЩИЙ ШАНСОН» - Вот мы попали.flac" WAVE TRACK 01 AUDIO TITLE "Тома (Музыка и слова Алексей Князев)" PERFORMER "Алексей Князев" FLAGS DCP INDEX 01 00:00:00 TRACK 02 AUDIO TITLE "Саня (Музыка и слова Алексей Князев)" PERFORMER "Алексей Князев" FLAGS DCP INDEX 00 03:53:74 INDEX 01 03:55:73 TRACK 03 AUDIO TITLE "Душа (Музыка и слова Алексей Князев) " PERFORMER "Алексей Князев" FLAGS DCP INDEX 00 06:57:17 INDEX 01 06:59:17 TRACK 04 AUDIO TITLE "Феня (Музыка и слова Алексей Князев)" PERFORMER "Алексей Князев" FLAGS DCP INDEX 00 12:22:15 INDEX 01 12:24:15 TRACK 05 AUDIO TITLE "Сон (Музыка и слова Алексей Князев)" PERFORMER "Алексей Князев" FLAGS DCP INDEX 00 16:22:54 INDEX 01 16:24:54 TRACK 06 AUDIO TITLE "Мама (Музыка и слова Алексей Князев)" PERFORMER "Алексей Князев" FLAGS DCP INDEX 00 19:29:11 INDEX 01 19:31:11 TRACK 07 AUDIO TITLE "Вот мы попали (Музыка и слова Алексей Князев)" PERFORMER "Алексей Князев" FLAGS DCP INDEX 00 25:06:59 INDEX 01 25:08:59 TRACK 08 AUDIO TITLE "Подельница (Музыка и слова Алексей Князев)" PERFORMER "Алексей Князев" FLAGS DCP INDEX 00 29:16:06 INDEX 01 29:18:06 TRACK 09 AUDIO TITLE "Всё позади (Музыка и слова Алексей Князев)" PERFORMER "Алексей Князев" FLAGS DCP INDEX 00 32:43:10 INDEX 01 32:45:10 TRACK 10 AUDIO TITLE "Алиби (Музыка и слова Алексей Князев)" PERFORMER "Алексей Князев" FLAGS DCP INDEX 00 37:43:31 INDEX 01 37:45:31 TRACK 11 AUDIO TITLE "Плач гитары (Музыка и слова Алексей Князев)" PERFORMER "Алексей Князев" FLAGS DCP INDEX 00 41:52:01 INDEX 01 41:54:01 TRACK 12 AUDIO TITLE "Сёма с Сарой (Музыка и слова Алексей Князев)" PERFORMER "Алексей Князев" FLAGS DCP INDEX 00 47:21:26 INDEX 01 47:23:26 TRACK 13 AUDIO TITLE "За колючкой небо в тучках (Музыка и слова Алексей Князев)" PERFORMER "Алексей Князев" FLAGS DCP INDEX 00 51:36:02 INDEX 01 51:38:02 TRACK 14 AUDIO TITLE "Воспоминание (Музыка и слова Алексей Князев)" PERFORMER "Алексей Князев" FLAGS DCP INDEX 00 55:30:56 INDEX 01 55:32:56 TRACK 15 AUDIO TITLE "Бабья доля (Музыка и слова Алексей Князев)" PERFORMER "Алексей Князев" FLAGS DCP INDEX 00 59:32:19 INDEX 01 59:34:19 TRACK 16 AUDIO TITLE "Диалог с опером (Музыка и слова Алексей Князев)" PERFORMER "Алексей Князев" FLAGS DCP INDEX 00 64:24:43 INDEX 01 64:26:43

Лог проверки качества

AUDIOCHECKER v2.0 beta (build 457) - by Dester - opdester@freemail.hu~~~~~~~~~~~~~~~~~~~~~~~~~~~~~~~~~~-=== DO NOT EDIT THIS FILE! ===-
Path: ...\Алексей Князев (с) 2005 [Вот мы попали]
1 -=- Алексей Князев - СЕРИЯ «НАСТОЯЩИЙ ШАНСОН» - Вот мы попали.flac -=- CDDA (99%)
44868308

COVERS CD

(Шансон) Серия «Настоящий Шансон» - 2005-2010 (45 CD), FLAC (image+.cue), lossless [mytorrnado.ru].t59.torrent 
Torrent: Registered [ 2015-11-03 22:03 ] · 8CF86BD25A2EA6DE28972C9A2BAC0C769C05909E Google it!

Download .torrent

139 KB

Status: checked
Completed: 61 times
Тип торрента:    
Size: 25.6 GB
Поделиться:
FAQ:
 
Как качать?
Как качать?
X
Скачайте торрент и откройте его в своем клиенте
uTorrent

скачать программу,
дождитесь окончания загрузки.
Если торрент закрыт? Инстркуция.
* Как смотреть?
Как смотреть?
X

Для работы Magic Player
Вам необходимо установить
Ace Stream P2P Multimedia Plug-in

Установить

Для работы Magic Player Вам необходимо включить
Ace Stream P2P Multimedia Plug-in

Инструкция
terms.php
Похожие темы




Запрещено категорически:
» Развязывать разборки (для этого есть ЛС)
» Оставлять комментарии, не относящиеся к содержанию материала.
» Добавлять спам, рекламу флуд..
К спаму относится:
1. Реклама любого направления.
2. Ссылки на сторонние ресурсы рекламного характера.
3. Ссылки на ресурсы порнографического направления.
4. Сылки на блоги и им подбным контeнтам.
» Запрещено оскорбление администрации, модераторов и пользователей.
» Часто писать с вкл. Caps Lock
»За нарушение правил бан или отключение без объяснений.
Уважайте чужой труд!

Правила могут дополняться и изменяться. С уважением Администрация.
[Profile] [PM]
Display posts    
Reply to topic

Current time is: 05-Aug 23:14

All times are UTC + 5



You cannot post new topics in this forum
You cannot reply to topics in this forum
You cannot edit your posts in this forum
You cannot delete your posts in this forum
You cannot vote in polls in this forum
You can attach files in this forum
You can download files in this forum










!ATTENTION!
The site does not give electronic versions of products, and is engaged only in a collecting and cataloguing of the references sent and published at a forum by our readers. If you are the legal owner of any submitted material and do not wish that the reference to it was in our catalogue, contact us and we shall immediately remove her. Files for an exchange on tracker are given by users of a site, and the administration does not bear the responsibility for their maintenance. The request to not fill in the files protected by copyrights, and also files of the illegal maintenance!