Видения / Visions (Кевин Гротерт / Kevin Greutert) [2015, США, ужасы, триллер, WEB-DLRip] Dub (Line)

DL-List and Torrent activity [Update ]
Size:  1.42 GB   |    Registered:  5 years 9 months   |    Completed:  49 times
Seeders:  1  [  0 KB/s  ]  
 
     
 
 
 
Author Message

Иваныч ®

Gender: Male

Longevity: 5 years 9 months

Posts: 8246

Наличие запрета:


Карма  175 

Location: Россия,Курган



: 19 ()

За внесенный вклад в развитие сайта (1) От администрации (1) Активный релизер  (100 релизов) (1) Активный релизер  (3000 релизов) (1)
Активный релизер  (250 и более релизов) (1) Активисту (1) Активный релизер  (2000 релизов) (1) Активный релизер  (50 релизов) (1)
Активному релизеру (5000 раздач) (1) Помощь (1) Активный релизер  (200 релизов) (1) Активный релизер  (150 релизов) (1)

Post 02-Nov-2015 20:11

[Quote]

Видения / Visions
Страна: США
Жанр: ужасы, триллер
Год выпуска: 2015
Продолжительность: 01:22:21-Перевод: Профессиональный (дублированный) Line
Cубтитры: нет
Режиссер: Кевин Гротерт / Kevin Greutert-В ролях: Гиллиан Джейкобс, Айла Фишер, Джим Парсонс, Энсон Маунт, Ева Лонгория, Джоанна Кэссиди, Джон де Ланси, Брайс Джонсон, Джефф Брэнсон, Кристин Корпаз-Описание: Чтобы быть рядом со своим мужем, беременная женщина переезжает на виноградную ферму. Там ее начинают одолевать страшные видения…-Сэмпл: http://sendfile.su/1169243
-Качество видео: WEB-DLRip
Формат видео: AVI
Видео: 720x304 (2.37:1), 23.976 fps, XviD build 50 ~2269 kbps avg, 0.43 bit/pixel
Аудио: 48 kHz, AC3 Dolby Digital, 2/0 (L,R) ch, ~192 kbps

MediaInfo

Формат : AVI
Формат/Информация : Audio Video Interleave
Размер файла : 1,42 Гбайт
Продолжительность : 1 ч. 22 м.
Общий поток : 2471 Кбит/сек
Программа кодирования : VirtualDubMod 1.5.10.2 (build 2540/release)
Библиотека кодирования : VirtualDubMod build 2540/release
Видео
Идентификатор : 0
Формат : MPEG-4 Visual
Профиль формата : Advanced Simple@L5
Параметр BVOP формата : 1
Параметр QPel формата : Нет
Параметр GMC формата : Без точки перехода
Параметр матрицы формата : Default (MPEG)
Идентификатор кодека : XVID
Идентификатор кодека/Подсказка : XviD
Продолжительность : 1 ч. 22 м.
Битрейт : 2270 Кбит/сек
Ширина : 720 пикселей
Высота : 304 пикселя
Соотношение сторон : 2,35:1
Частота кадров : 23,976 кадра/сек
Цветовое пространство : YUV
Субдискретизация насыщенности : 4:2:0
Битовая глубина : 8 бит
Тип развёртки : Прогрессивная
Метод сжатия : С потерями
Бит/(Пиксели*Кадры) : 0.433
Размер потока : 1,31 Гбайт (92%)
Библиотека кодирования : XviD 1.2.1 (UTC 2008-12-04)
Аудио
Идентификатор : 1
Формат : AC-3
Формат/Информация : Audio Coding 3
Расширение режима : CM (complete main)
Параметр Endianness формата : Big
Идентификатор кодека : 2000
Продолжительность : 1 ч. 22 м.
Вид битрейта : Постоянный
Битрейт : 192 Кбит/сек
Каналы : 2 канала
Расположение каналов : Front: L R
Частота : 48,0 КГц
Метод сжатия : С потерями
Размер потока : 113 Мбайт (8%)
Выравнивание : Разделение по промежуткам
Продолжительность промежутка : 42 мс. (1,00 видеокадр)
Время предзагрузки промежутка : 500 мс.

Скриншот c названием фильма

Скриншоты





Сейчас вы смотрите Видения / Visions (Кевин Гротерт / Kevin Greutert) [2015, США, ужасы, триллер, WEB-DLRip] Dub (Line),не забываем оставлять комментарии!
Видения / Visions (Кевин Гротерт / Kevin Greutert) [2015, США, ужасы, триллер, WEB-DLRip] Dub (Line) [mytorrnado.ru].t6.torrent 
Torrent: Registered [ 2015-11-02 20:11 ] · 253914E16FE3486404E2ED375910CC81854A759D Google it!

Download .torrent

15 KB

Status: checked
Completed: 49 times
Тип торрента: Публичный  - Seed: 1;    
Size: 1.42 GB
Поделиться:
FAQ:
 
Как качать?
Как качать?
X
Скачайте торрент и откройте его в своем клиенте
uTorrent

скачать программу,
дождитесь окончания загрузки.
Если торрент закрыт? Инстркуция.
* Как смотреть?
Как смотреть?
X

Для работы Magic Player
Вам необходимо установить
Ace Stream P2P Multimedia Plug-in

Установить

Для работы Magic Player Вам необходимо включить
Ace Stream P2P Multimedia Plug-in

Инструкция
terms.php
Похожие темы




Запрещено категорически:
» Развязывать разборки (для этого есть ЛС)
» Оставлять комментарии, не относящиеся к содержанию материала.
» Добавлять спам, рекламу флуд..
К спаму относится:
1. Реклама любого направления.
2. Ссылки на сторонние ресурсы рекламного характера.
3. Ссылки на ресурсы порнографического направления.
4. Сылки на блоги и им подбным контeнтам.
» Запрещено оскорбление администрации, модераторов и пользователей.
» Часто писать с вкл. Caps Lock
»За нарушение правил бан или отключение без объяснений.
Уважайте чужой труд!

Правила могут дополняться и изменяться. С уважением Администрация.
[Profile] [PM]
Display posts    
Reply to topic

Current time is: 05-Aug 23:32

All times are UTC + 5



You cannot post new topics in this forum
You cannot reply to topics in this forum
You cannot edit your posts in this forum
You cannot delete your posts in this forum
You cannot vote in polls in this forum
You cannot attach files in this forum
You can download files in this forum










!ATTENTION!
The site does not give electronic versions of products, and is engaged only in a collecting and cataloguing of the references sent and published at a forum by our readers. If you are the legal owner of any submitted material and do not wish that the reference to it was in our catalogue, contact us and we shall immediately remove her. Files for an exchange on tracker are given by users of a site, and the administration does not bear the responsibility for their maintenance. The request to not fill in the files protected by copyrights, and also files of the illegal maintenance!