Хэллоуин / Halloween (1978) BDRip-AVC от MediaClub | P, P2, A

DL-List and Torrent activity [Update ]
Size:  3.22 GB   |    Registered:  5 years 8 months   |    Completed:  23 times
Seeders:  3  [  0 KB/s  ]   Leechers:  15  [  0 KB/s  ]  
 
     
 
 
Author Message

hakker ®

Gender: Male

Longevity: 5 years 8 months

Posts: 52

Наличие запрета:


Карма  10 

Location: Москва



: None

Post 09-Nov-2015 02:25

[Quote]


Информация о фильме
Название: Хэллоуин
Оригинальное название: Halloween
Год выхода: 1978
Жанр: Ужасы
Режиссер: Джон Карпентер
В ролях: Дональд Плезенс, Джейми Ли Кёртис, Нэнси Кайс, П.Дж. Соулз, Чарльз Сайферс, Кайл Ричардс, Брайан Эндрюс, Джон Майкл Грэхэм, Нэнси Стивенс, Артур Мэлет
О фильме: Убийца-психопат Майкл Майерс, будучи ребенком, совершил убийство собственной сестры в Хэллоуин — День Всех Святых. 15 лет спустя маньяк-убийца снова взялся за старое и терроризирует небольшой городок. Он сбежал из приюта для психически ненормальных, чтобы снова наносить свои смертельные удары в Хэллоуин...

Страна: США
Студия: Compass International Pictures, Falcon International Productions
Продолжительность: 01:30:56
Перевод: Профессиональный многоголосый, профессиональный двухголосый, авторский одноголосый (Санаев), (Иванов), (Неизвестный автор), (Королёв), (Карповский)
Файл
Кодек: MPEG-4 AVC
Качество: BDRip-AVC
Видео: 2500 Кбит/с, 1024x436, 23.976 кадр/с
Звук:
Аудио #1: Русский (AC3, 6 ch, 448 Кбит/с) / Профессиональный многоголосый (Total DVD)
Аудио #2: Русский (AC3, 2 ch, 192 Кбит/с) / Профессиональный двухголосый (НТВ)
Аудио #3: Русский (AC3, 2 ch, 192 Кбит/с) / Авторский одноголосый (Санаев)
Аудио #4: Русский (AC3, 2 ch, 192 Кбит/с) / Авторский одноголосый (Иванов)
Аудио #5: Русский (AC3, 2 ch, 192 Кбит/с) / Авторский одноголосый (Неизвестный автор)
Аудио #6: Русский (AC3, 6 ch, 448 Кбит/с) / Авторский одноголосый (Королёв)
Аудио #7: Русский (AC3, 6 ch, 448 Кбит/с) / Авторский одноголосый (Карповский)
Аудио #8: Английский (AC3, 6 ch, 448 Кбит/с)
Субтитры: Русские, английские
Семпл

MediaInfo:

Общее
Уникальный идентификатор : 248927802744694453604164231874210794688 (0xBB45C03CECFB9A12B6A75CCE12318CC0)
Полное имя : D:Мои РипыHjellouin.1978.x264.BDRip.AVC.MediaClub.mkv
Формат : Matroska
Версия формата : Version 4 / Version 2
Размер файла : 3,22 Гбайт
Продолжительность : 1 ч. 30 м.
Общий поток : 5062 Кбит/сек
Название фильма : = MediaClub = rip by krakatuq
Дата кодирования : UTC 2014-05-18 10:27:23
Программа кодирования : mkvmerge v6.6.0 ('The Edge Of The In Between') built on Dec 1 2013 17:55:00
Библиотека кодирования : libebml v1.3.0 + libmatroska v1.4.1
Видео
Идентификатор : 1
Формат : AVC
Формат/Информация : Advanced Video Codec
Профиль формата : High@L4.1
Параметр CABAC формата : Да
Параметр ReFrames формата : 9 кадров
Идентификатор кодека : V_MPEG4/ISO/AVC
Продолжительность : 1 ч. 30 м.
Битрейт : 2500 Кбит/сек
Ширина : 1024 пикселя
Высота : 436 пикселей
Соотношение сторон : 2,35:1
Режим частоты кадров : Постоянный
Частота кадров : 23,976 кадра/сек
Цветовое пространство : YUV
Субдискретизация насыщенности : 4:2:0
Битовая глубина : 8 бит
Тип развёртки : Прогрессивная
Бит/(Пиксели*Кадры) : 0.234
Размер потока : 1,53 Гбайт (47%)
Заголовок : Hjellouin.1978.x264.BDRip.AVC.MediaClub
Библиотека кодирования : x264 core 142 r2409+42 04be48a tMod [8-bit@4:2:0 X86]
Настройки программы : cabac=1 / ref=9 / deblock=1:-2:-2 / analyse=0x3:0x133 / me=umh / subme=11 / psy=1 / fade_compensate=0.00 / psy_rd=1.00:0.20 / mixed_ref=1 / me_range=32 / chroma_me=1 / trellis=2 / 8x8dct=1 / cqm=0 / deadzone=21,11 / fast_pskip=0 / chroma_qp_offset=-3 / threads=3 / lookahead_threads=1 / sliced_threads=0 / nr=0 / decimate=0 / interlaced=0 / bluray_compat=0 / constrained_intra=0 / fgo=0 / bframes=8 / b_pyramid=2 / b_adapt=2 / b_bias=0 / direct=3 / weightb=1 / open_gop=0 / weightp=2 / keyint=240 / keyint_min=23 / scenecut=40 / intra_refresh=0 / rc=2pass / mbtree=0 / bitrate=2500 / ratetol=1.0 / qcomp=0.60 / qpmin=0:0:0 / qpmax=69:69:69 / qpstep=4 / cplxblur=20.0 / qblur=0.5 / ip_ratio=1.40 / pb_ratio=1.30 / aq=1:1.00 / aq-sensitivity=10.00 / aq-factor=1.00:1.00:1.00 / aq2=0 / aq3=0
Язык : English
Default : Да
Forced : Нет
Аудио #1
Идентификатор : 2
Формат : AC-3
Формат/Информация : Audio Coding 3
Расширение режима : CM (complete main)
Параметр Endianness формата : Big
Идентификатор кодека : A_AC3
Продолжительность : 1 ч. 30 м.
Вид битрейта : Постоянный
Битрейт : 448 Кбит/сек
Каналы : 6 каналов
Расположение каналов : Front: L C R, Side: L R, LFE
Частота : 48,0 КГц
Битовая глубина : 16 бит
Метод сжатия : С потерями
Размер потока : 291 Мбайт (9%)
Заголовок : TRACK_01_MVO_RUS_Total DVD
Язык : Russian
Default : Да
Forced : Да
Аудио #2
Идентификатор : 3
Формат : AC-3
Формат/Информация : Audio Coding 3
Расширение режима : CM (complete main)
Параметр Endianness формата : Big
Идентификатор кодека : A_AC3
Продолжительность : 1 ч. 30 м.
Вид битрейта : Постоянный
Битрейт : 192 Кбит/сек
Каналы : 2 канала
Расположение каналов : Front: L R
Частота : 48,0 КГц
Битовая глубина : 16 бит
Метод сжатия : С потерями
Размер потока : 125 Мбайт (4%)
Заголовок : TRACK_02_DVO_RUS_ НТВ
Язык : Russian
Default : Нет
Forced : Нет
Аудио #3
Идентификатор : 4
Формат : AC-3
Формат/Информация : Audio Coding 3
Расширение режима : CM (complete main)
Параметр Endianness формата : Big
Идентификатор кодека : A_AC3
Продолжительность : 1 ч. 30 м.
Вид битрейта : Постоянный
Битрейт : 192 Кбит/сек
Каналы : 2 канала
Расположение каналов : Front: L R
Частота : 48,0 КГц
Битовая глубина : 16 бит
Метод сжатия : С потерями
Размер потока : 125 Мбайт (4%)
Заголовок : TRACK_03_AVO_RUS_Sanaev
Язык : Russian
Default : Нет
Forced : Нет
Аудио #4
Идентификатор : 5
Формат : AC-3
Формат/Информация : Audio Coding 3
Расширение режима : CM (complete main)
Параметр Endianness формата : Big
Идентификатор кодека : A_AC3
Продолжительность : 1 ч. 30 м.
Вид битрейта : Постоянный
Битрейт : 192 Кбит/сек
Каналы : 2 канала
Расположение каналов : Front: L R
Частота : 48,0 КГц
Битовая глубина : 16 бит
Метод сжатия : С потерями
Размер потока : 125 Мбайт (4%)
Заголовок : TRACK_04_AVO_RUS_Ivanov
Язык : Russian
Default : Нет
Forced : Нет
Аудио #5
Идентификатор : 6
Формат : AC-3
Формат/Информация : Audio Coding 3
Расширение режима : CM (complete main)
Параметр Endianness формата : Big
Идентификатор кодека : A_AC3
Продолжительность : 1 ч. 30 м.
Вид битрейта : Постоянный
Битрейт : 192 Кбит/сек
Каналы : 2 канала
Расположение каналов : Front: L R
Частота : 48,0 КГц
Битовая глубина : 16 бит
Метод сжатия : С потерями
Размер потока : 125 Мбайт (4%)
Заголовок : TRACK_05_AVO_RUS
Язык : Russian
Default : Нет
Forced : Нет
Аудио #6
Идентификатор : 7
Формат : AC-3
Формат/Информация : Audio Coding 3
Расширение режима : CM (complete main)
Параметр Endianness формата : Big
Идентификатор кодека : A_AC3
Продолжительность : 1 ч. 30 м.
Вид битрейта : Постоянный
Битрейт : 448 Кбит/сек
Каналы : 6 каналов
Расположение каналов : Front: L C R, Side: L R, LFE
Частота : 48,0 КГц
Битовая глубина : 16 бит
Метод сжатия : С потерями
Размер потока : 291 Мбайт (9%)
Заголовок : TRACK_06_AVO_RUS_Koroljov
Язык : Russian
Default : Нет
Forced : Нет
Аудио #7
Идентификатор : 8
Формат : AC-3
Формат/Информация : Audio Coding 3
Расширение режима : CM (complete main)
Параметр Endianness формата : Big
Идентификатор кодека : A_AC3
Продолжительность : 1 ч. 30 м.
Вид битрейта : Постоянный
Битрейт : 448 Кбит/сек
Каналы : 6 каналов
Расположение каналов : Front: L C R, Side: L R, LFE
Частота : 48,0 КГц
Битовая глубина : 16 бит
Метод сжатия : С потерями
Размер потока : 291 Мбайт (9%)
Заголовок : TRACK_07_AVO_RUS_Karpovskij
Язык : Russian
Default : Нет
Forced : Нет
Аудио #8
Идентификатор : 9
Формат : AC-3
Формат/Информация : Audio Coding 3
Расширение режима : CM (complete main)
Параметр Endianness формата : Big
Идентификатор кодека : A_AC3
Продолжительность : 1 ч. 30 м.
Вид битрейта : Постоянный
Битрейт : 448 Кбит/сек
Каналы : 6 каналов
Расположение каналов : Front: L C R, Side: L R, LFE
Частота : 48,0 КГц
Битовая глубина : 16 бит
Метод сжатия : С потерями
Размер потока : 291 Мбайт (9%)
Заголовок : TRACK_08_ORIGINAL_ENG
Язык : English
Default : Нет
Forced : Нет
Текст #1
Идентификатор : 10
Формат : UTF-8
Идентификатор кодека : S_TEXT/UTF8
Идентификатор кодека/Информация : UTF-8 Plain Text
Заголовок : TEXT_01_SUB_RUS
Язык : Russian
Default : Нет
Forced : Нет
Текст #2
Идентификатор : 11
Формат : UTF-8
Идентификатор кодека : S_TEXT/UTF8
Идентификатор кодека/Информация : UTF-8 Plain Text
Заголовок : TEXT_02_SUB_ENG
Язык : English
Default : Нет
Forced : Нет
Меню
00:00:00.000 : en:Main Titles
00:02:05.750 : en:All Hallows Eve, 1963
00:07:00.545 : en:Hell Night
00:11:09.210 : en:On a Crisp October Morning...
00:14:29.869 : en:Fate
00:18:35.739 : en:Don't Talk to Strangers
00:23:02.881 : en:Trick or Treat
00:28:05.975 : en:Day of the Dead
00:31:00.942 : en:Autumn Twilight
00:34:45.124 : en:Haunted House
00:39:58.813 : en:The Bogeyman
00:44:05.059 : en:Things That Go Bump in the Night
00:49:04.608 : en:Samhain
00:54:15.752 : en:Pranks
00:58:30.757 : en:Halloween Partying
01:04:21.941 : en:Masquerade
01:08:49.667 : en:House of Mystery
01:14:21.915 : en:Decorations
01:18:32.833 : en:Danse Macabre
01:25:01.054 : en:"It Was the Bogeyman"
01:28:42.150 : en:End Credits

О релизе:

• Сохранены оригинальные чаптеры как на Blu-ray
За постер спасибо Media-Art-Club

Скриншоты

Релиз от:
Автор рипа:
Сейчас вы смотрите Хэллоуин / Halloween (1978) BDRip-AVC от MediaClub | P, P2, A,не забываем оставлять комментарии!
Хэллоуин / Halloween (1978) BDRip-AVC от MediaClub | P, P2, A [mytorrnado.ru].t606.torrent 
Torrent: Registered [ 2015-11-09 02:25 ] · AB8465B985DA29C41896886F43764A712A1D02DF Google it!

Download .torrent

17 KB

Status: checked
Completed: 23 times
Тип торрента: Публичный  - Seed: 3;  Leeh: 15    
Size: 3.22 GB
Поделиться:
FAQ:
 
Как качать?
Как качать?
X
Скачайте торрент и откройте его в своем клиенте
uTorrent

скачать программу,
дождитесь окончания загрузки.
Если торрент закрыт? Инстркуция.
* Как смотреть?
Как смотреть?
X

Для работы Magic Player
Вам необходимо установить
Ace Stream P2P Multimedia Plug-in

Установить

Для работы Magic Player Вам необходимо включить
Ace Stream P2P Multimedia Plug-in

Инструкция
terms.php
Похожие темы




Запрещено категорически:
» Развязывать разборки (для этого есть ЛС)
» Оставлять комментарии, не относящиеся к содержанию материала.
» Добавлять спам, рекламу флуд..
К спаму относится:
1. Реклама любого направления.
2. Ссылки на сторонние ресурсы рекламного характера.
3. Ссылки на ресурсы порнографического направления.
4. Сылки на блоги и им подбным контeнтам.
» Запрещено оскорбление администрации, модераторов и пользователей.
» Часто писать с вкл. Caps Lock
»За нарушение правил бан или отключение без объяснений.
Уважайте чужой труд!

Правила могут дополняться и изменяться. С уважением Администрация.
[Profile] [PM]
Display posts    
Reply to topic

Current time is: 24-Jul 09:46

All times are UTC + 5



You cannot post new topics in this forum
You cannot reply to topics in this forum
You cannot edit your posts in this forum
You cannot delete your posts in this forum
You cannot vote in polls in this forum
You cannot attach files in this forum
You can download files in this forum










!ATTENTION!
The site does not give electronic versions of products, and is engaged only in a collecting and cataloguing of the references sent and published at a forum by our readers. If you are the legal owner of any submitted material and do not wish that the reference to it was in our catalogue, contact us and we shall immediately remove her. Files for an exchange on tracker are given by users of a site, and the administration does not bear the responsibility for their maintenance. The request to not fill in the files protected by copyrights, and also files of the illegal maintenance!