Хэллоуин 2 / Halloween II (1981) BDRip-AVC от MediaClub | P2, L

DL-List and Torrent activity [Update ]
Size:  2.38 GB   |    Registered:  5 years 8 months   |    Completed:  31 times
Seeders:  1  [  0 KB/s  ]   Leechers:  7  [  0 KB/s  ]  
 
     
 
 
 
Author Message

hakker ®

Gender: Male

Longevity: 5 years 8 months

Posts: 52

Наличие запрета:


Карма  10 

Location: Москва



: None

Post 09-Nov-2015 02:26

[Quote]


Информация о фильме
Название: Хэллоуин 2
Оригинальное название: Halloween II
Год выхода: 1981
Жанр: Ужасы
Режиссер: Рик Розенталь
В ролях: Джейми Ли Кёртис, Дональд Плезенс, Чарльз Сайферс, Джефри Крамер, Лэнс Гест, Памела Сьюзан Шуп, Хантер Фон Лир, Дик Уорлок, Лео Росси, Глория Гиффорд, Тони Мойер, Ана Алисия, Форд Рейни, Клифф ’Толстяк’ Эммих, Нэнси Стивенс, Джон Зенда, Катрин Бергсторм, Алан Хофрект, Люсиль Бенсон, Ховард Калвер, Дэна Карви, Билли Уорлок, Джонатан Принц, Ли Френч, Ти Митчел
О фильме: 31 октября 1975 года. По городу проносится волна кровавых убийств. Жители шепотом произносят имя Майкла Майерса, кровавого маньяка, который вернулся как раз на Хэллоуин. Его прежняя жертва, Лори Строуд, выжила, и он вернулся, чтобы закончить начатое. На сей раз преследования Лори приводят его в больницу, и в ее темных коридорах хладнокровный неубиваемый психопат находит свои жертвы.....

Страна: США
Студия: De Laurentiis, Universal Pictures
Продолжительность: 01:32:31
Перевод: Профессиональный двухголосый, любительский одноголосый
Файл
Кодек: MPEG-4 AVC
Качество: BDRip-AVC
Видео: 2600 Кбит/с, 1024x436, 23.976 кадр/с
Звук:
Аудио #1: Русский (AC3, 6 ch, 448 Кбит/с) / Профессиональный двухголосый (R5)
Аудио #2: Русский (AC3, 2 ch, 192 Кбит/с) / Любительский одноголосый
Аудио #3: Английский (AC3, 6 ch, 448 Кбит/с)
Субтитры: Английские
Семпл

MediaInfo:

Общее
Уникальный идентификатор : 229684258607247687746160976211207514232 (0xACCB94428F132956984DBC560617E878)
Полное имя : D:Мои РипыHjellouin.2.1981.x264.DDRip.AVC.MediaClub.mkv
Формат : Matroska
Версия формата : Version 4 / Version 2
Размер файла : 2,38 Гбайт
Продолжительность : 1 ч. 32 м.
Общий поток : 3688 Кбит/сек
Название фильма : = MediaClub = rip by krakatuq
Дата кодирования : UTC 2014-05-20 11:56:05
Программа кодирования : mkvmerge v6.6.0 ('The Edge Of The In Between') built on Dec 1 2013 17:55:00
Библиотека кодирования : libebml v1.3.0 + libmatroska v1.4.1
Видео
Идентификатор : 1
Формат : AVC
Формат/Информация : Advanced Video Codec
Профиль формата : High@L4.1
Параметр CABAC формата : Да
Параметр ReFrames формата : 9 кадров
Идентификатор кодека : V_MPEG4/ISO/AVC
Продолжительность : 1 ч. 32 м.
Битрейт : 2600 Кбит/сек
Ширина : 1024 пикселя
Высота : 436 пикселей
Соотношение сторон : 2,35:1
Режим частоты кадров : Постоянный
Частота кадров : 23,976 кадра/сек
Цветовое пространство : YUV
Субдискретизация насыщенности : 4:2:0
Битовая глубина : 8 бит
Тип развёртки : Прогрессивная
Бит/(Пиксели*Кадры) : 0.243
Размер потока : 1,63 Гбайт (69%)
Заголовок : Hjellouin.2.1981.x264.DDRip.AVC.MediaClub
Библиотека кодирования : x264 core 142 r2409+42 04be48a tMod [8-bit@4:2:0 X86]
Настройки программы : cabac=1 / ref=9 / deblock=1:-2:-2 / analyse=0x3:0x133 / me=umh / subme=11 / psy=1 / fade_compensate=0.00 / psy_rd=1.00:0.20 / mixed_ref=1 / me_range=32 / chroma_me=1 / trellis=2 / 8x8dct=1 / cqm=0 / deadzone=21,11 / fast_pskip=0 / chroma_qp_offset=-3 / threads=3 / lookahead_threads=1 / sliced_threads=0 / nr=0 / decimate=0 / interlaced=0 / bluray_compat=0 / constrained_intra=0 / fgo=0 / bframes=8 / b_pyramid=2 / b_adapt=2 / b_bias=0 / direct=3 / weightb=1 / open_gop=0 / weightp=2 / keyint=240 / keyint_min=23 / scenecut=40 / intra_refresh=0 / rc=2pass / mbtree=0 / bitrate=2600 / ratetol=1.0 / qcomp=0.60 / qpmin=0:0:0 / qpmax=69:69:69 / qpstep=4 / cplxblur=20.0 / qblur=0.5 / ip_ratio=1.40 / pb_ratio=1.30 / aq=1:1.00 / aq-sensitivity=10.00 / aq-factor=1.00:1.00:1.00 / aq2=0 / aq3=0
Язык : English
Default : Да
Forced : Нет
Аудио #1
Идентификатор : 2
Формат : AC-3
Формат/Информация : Audio Coding 3
Расширение режима : CM (complete main)
Параметр Endianness формата : Big
Идентификатор кодека : A_AC3
Продолжительность : 1 ч. 32 м.
Вид битрейта : Постоянный
Битрейт : 448 Кбит/сек
Каналы : 6 каналов
Расположение каналов : Front: L C R, Side: L R, LFE
Частота : 48,0 КГц
Битовая глубина : 16 бит
Метод сжатия : С потерями
Размер потока : 296 Мбайт (12%)
Заголовок : TRACK_01_DVO_RUS_R5
Язык : Russian
Default : Да
Forced : Да
Аудио #2
Идентификатор : 3
Формат : AC-3
Формат/Информация : Audio Coding 3
Расширение режима : CM (complete main)
Параметр Endianness формата : Big
Идентификатор кодека : A_AC3
Продолжительность : 1 ч. 32 м.
Вид битрейта : Постоянный
Битрейт : 192 Кбит/сек
Каналы : 2 канала
Расположение каналов : Front: L R
Частота : 48,0 КГц
Битовая глубина : 16 бит
Метод сжатия : С потерями
Размер потока : 127 Мбайт (5%)
Заголовок : TRACK_02_VO_RUS
Язык : Russian
Default : Нет
Forced : Нет
Аудио #3
Идентификатор : 4
Формат : AC-3
Формат/Информация : Audio Coding 3
Расширение режима : CM (complete main)
Параметр Endianness формата : Big
Идентификатор кодека : A_AC3
Продолжительность : 1 ч. 32 м.
Вид битрейта : Постоянный
Битрейт : 448 Кбит/сек
Каналы : 6 каналов
Расположение каналов : Front: L C R, Side: L R, LFE
Частота : 48,0 КГц
Битовая глубина : 16 бит
Метод сжатия : С потерями
Размер потока : 296 Мбайт (12%)
Заголовок : TRACK_03_ORIGINAL_ENG
Язык : English
Default : Нет
Forced : Нет
Текст
Идентификатор : 5
Формат : UTF-8
Идентификатор кодека : S_TEXT/UTF8
Идентификатор кодека/Информация : UTF-8 Plain Text
Заголовок : TRACK_03_ORIGINAL_ENG
Язык : English
Default : Нет
Forced : Нет
Меню
00:00:00.000 : en:00:00:00.000
00:04:18.425 : en:00:04:18.425
00:07:17.896 : en:00:07:17.896
00:12:23.993 : en:00:12:23.993
00:17:24.961 : en:00:17:24.961
00:19:59.990 : en:00:19:59.990
00:22:01.987 : en:00:22:01.987
00:26:49.983 : en:00:26:49.983
00:33:20.957 : en:00:33:20.957
00:41:26.984 : en:00:41:26.984
00:44:21.951 : en:00:44:21.951
00:55:02.925 : en:00:55:02.925
00:58:36.638 : en:00:58:36.638
01:03:17.961 : en:01:03:17.961
01:07:35.218 : en:01:07:35.218
01:13:14.932 : en:01:13:14.932
01:25:29.374 : en:01:25:29.374
01:27:55.770 : en:01:27:55.770

О релизе:

• Сохранены оригинальные чаптеры как на Blu-ray.

Скриншоты

Релиз от:
Автор рипа:
Сейчас вы смотрите Хэллоуин 2 / Halloween II (1981) BDRip-AVC от MediaClub | P2, L,не забываем оставлять комментарии!
Хэллоуин 2 / Halloween II (1981) BDRip-AVC от MediaClub | P2, L [mytorrnado.ru].t607.torrent 
Torrent: Registered [ 2015-11-09 02:26 ] · F076D502C240E8F29230BDFBE82CC050DCEF2602 Google it!

Download .torrent

13 KB

Status: checked
Completed: 31 times
Тип торрента: Публичный  - Seed: 1;  Leeh: 7    
Size: 2.38 GB
Поделиться:
FAQ:
 
Как качать?
Как качать?
X
Скачайте торрент и откройте его в своем клиенте
uTorrent

скачать программу,
дождитесь окончания загрузки.
Если торрент закрыт? Инстркуция.
* Как смотреть?
Как смотреть?
X

Для работы Magic Player
Вам необходимо установить
Ace Stream P2P Multimedia Plug-in

Установить

Для работы Magic Player Вам необходимо включить
Ace Stream P2P Multimedia Plug-in

Инструкция
terms.php
Похожие темы




Запрещено категорически:
» Развязывать разборки (для этого есть ЛС)
» Оставлять комментарии, не относящиеся к содержанию материала.
» Добавлять спам, рекламу флуд..
К спаму относится:
1. Реклама любого направления.
2. Ссылки на сторонние ресурсы рекламного характера.
3. Ссылки на ресурсы порнографического направления.
4. Сылки на блоги и им подбным контeнтам.
» Запрещено оскорбление администрации, модераторов и пользователей.
» Часто писать с вкл. Caps Lock
»За нарушение правил бан или отключение без объяснений.
Уважайте чужой труд!

Правила могут дополняться и изменяться. С уважением Администрация.
[Profile] [PM]
Display posts    
Reply to topic

Current time is: 24-Jul 17:10

All times are UTC + 5



You cannot post new topics in this forum
You cannot reply to topics in this forum
You cannot edit your posts in this forum
You cannot delete your posts in this forum
You cannot vote in polls in this forum
You cannot attach files in this forum
You can download files in this forum










!ATTENTION!
The site does not give electronic versions of products, and is engaged only in a collecting and cataloguing of the references sent and published at a forum by our readers. If you are the legal owner of any submitted material and do not wish that the reference to it was in our catalogue, contact us and we shall immediately remove her. Files for an exchange on tracker are given by users of a site, and the administration does not bear the responsibility for their maintenance. The request to not fill in the files protected by copyrights, and also files of the illegal maintenance!