Время бешеных псов / Mad Dog Time (1996) HDRip от Leon-masl | P, A

DL-List and Torrent activity [Update ]
Size:  1.46 GB   |    Registered:  5 years 8 months   |    Completed:  26 times
Seeders:  2  [  0 KB/s  ]   Leechers:  9  [  0 KB/s  ]  
 
     
 
 
 
Author Message

hakker ®

Gender: Male

Longevity: 5 years 8 months

Posts: 52

Наличие запрета:


Карма  10 

Location: Москва



: None

Post 09-Nov-2015 02:53

[Quote]


Информация о фильме
Название: Время бешеных псов
Оригинальное название: Mad Dog Time
Год выхода: 1996
Жанр: Комедия, криминал
Режиссер: Ларри Бишоп
В ролях: Джефф Голдблюм, Ричард Дрейфусс, Гэбриел Бирн, Эллен Баркин, Дайан Лэйн, Бёрт Рейнолдс, Ларри Бишоп, Джои Бишоп, Кайл МакЛахлан, Энджи Эверхарт, Генри Сильва, Майкл Дж. Поллард, Грегори Хайнс, Билли Айдол, Билли Драго, Хуан Фернандес, Кристофер Джонс, Пол Энка, Ричард Прайор, Роб Райнер, Джон Инграссия, Риал Эндрюс
О фильме:
Владелец роскошного ресторана Вик - главарь преступной банды по прозвищу "Бешеный пёс". В соперничестве с другим крупным мафиози Мики Холлидеем он пытается установить полный контроль в клубном и игорном бизнесе. Для достижения этой цели используются все средства: от «девушек на ночь» до «русской рулетки». Гремят выстрелы, падают тела, изрешеченные пулями, но воспринимать эту картину всерьёз, как гангстерский боевик или драму, не стоит. Это стилизованная ирония, почти театральная постановка на грани фарса, в которой самый безумный оказывается наиболее здравомыслящим...

Страна: США
Продолжительность: 01:32:53
Перевод: Профессиональный (многоголосый закадровый), |Неоклассика|, Авторский (одноголосый закадровый) А.Гаврилов
Файл
Кодек: XviD
Качество: HDRip
Видео: 704x384, 23,976 fps, 1665 kbps
Аудио 1: русский, AC3, 384 kbps, 6 ch, 48 kHz........Профессиональный (многоголосый закадровый)
Аудио 2: русский, AC3, 192 kbps, 2 ch, 48 kHz........Авторский (одноголосый закадровый) А.Гаврилов

MI

Общее
Полное имя : Vremia.beshennih.psov.1996.HDRip..avi
Формат : AVI
Формат/Информация : Audio Video Interleave
Размер файла : 1,46 Гбайт
Продолжительность : 1 ч. 32 м.
Общий поток : 2253 Кбит/сек
Программа кодирования : VirtualDubMod 1.5.10.2 (build 2542/release)
Библиотека кодирования : VirtualDubMod build 2542/release
Видео
Идентификатор : 0
Формат : MPEG-4 Visual
Профиль формата : Advanced Simple@L5
Параметр BVOP формата : 1
Параметр QPel формата : Нет
Параметр GMC формата : Без точки перехода
Параметр матрицы формата : Выборочная
Идентификатор кодека : XVID
Идентификатор кодека/Подсказка : XviD
Продолжительность : 1 ч. 32 м.
Битрейт : 1665 Кбит/сек
Ширина : 704 пикс.
Высота : 384 пикс.
Соотношение сторон : 16:9
Частота кадров : 23,976 кадр/сек
Цветовое пространство : YUV
Подвыборка цветности : 4:2:0
Битовая глубина : 8 бит
Тип развёртки : Прогрессивная
Метод сжатия : С потерями
Бит/(Пиксели*Кадры) : 0.257
Размер потока : 1,08 Гбайт (74%)
Библиотека кодирования : XviD 73
Аудио #1
Идентификатор : 1
Формат : AC-3
Формат/Информация : Audio Coding 3
Расширение режима : CM (complete main)
Идентификатор кодека : 2000
Продолжительность : 1 ч. 32 м.
Вид битрейта : Постоянный
Битрейт : 384 Кбит/сек
Канал(ы) : 6 канала(ов)
Расположение каналов : Front: L C R, Side: L R, LFE
Частота : 48,0 КГц
Битовая глубина : 16 бит
Метод сжатия : С потерями
Размер потока : 254 Мбайт (17%)
Выравнивание : Разделение по промежуткам
Продолжительность промежутка : 42 мс. (1,00 видеокадр)
Время предзагрузки промежутка : 500 ms
Аудио #2
Идентификатор : 2
Формат : AC-3
Формат/Информация : Audio Coding 3
Расширение режима : CM (complete main)
Идентификатор кодека : 2000
Продолжительность : 1 ч. 32 м.
Вид битрейта : Постоянный
Битрейт : 192 Кбит/сек
Канал(ы) : 2 канала(ов)
Расположение каналов : Front: L R
Частота : 48,0 КГц
Битовая глубина : 16 бит
Метод сжатия : С потерями
Размер потока : 127 Мбайт (8%)
Выравнивание : Разделение по промежуткам
Продолжительность промежутка : 42 мс. (1,00 видеокадр)
Время предзагрузки промежутка : 500 ms

Скриншоты

Релиз от: Leon-masl
Сейчас вы смотрите Время бешеных псов / Mad Dog Time (1996) HDRip от Leon-masl | P, A,не забываем оставлять комментарии!
Время бешеных псов / Mad Dog Time (1996) HDRip от Leon-masl | P, A [mytorrnado.ru].t629.torrent 
Torrent: Registered [ 2015-11-09 02:53 ] · 7D998DAF0BCC83E1DF29D531106168082E329F9E Google it!

Download .torrent

16 KB

Status: checked
Completed: 26 times
Тип торрента: Публичный  - Seed: 2;  Leeh: 9    
Size: 1.46 GB
Поделиться:
FAQ:
 
Как качать?
Как качать?
X
Скачайте торрент и откройте его в своем клиенте
uTorrent

скачать программу,
дождитесь окончания загрузки.
Если торрент закрыт? Инстркуция.
* Как смотреть?
Как смотреть?
X

Для работы Magic Player
Вам необходимо установить
Ace Stream P2P Multimedia Plug-in

Установить

Для работы Magic Player Вам необходимо включить
Ace Stream P2P Multimedia Plug-in

Инструкция
terms.php
Похожие темы




Запрещено категорически:
» Развязывать разборки (для этого есть ЛС)
» Оставлять комментарии, не относящиеся к содержанию материала.
» Добавлять спам, рекламу флуд..
К спаму относится:
1. Реклама любого направления.
2. Ссылки на сторонние ресурсы рекламного характера.
3. Ссылки на ресурсы порнографического направления.
4. Сылки на блоги и им подбным контeнтам.
» Запрещено оскорбление администрации, модераторов и пользователей.
» Часто писать с вкл. Caps Lock
»За нарушение правил бан или отключение без объяснений.
Уважайте чужой труд!

Правила могут дополняться и изменяться. С уважением Администрация.
[Profile] [PM]
Display posts    
Reply to topic

Current time is: 01-Aug 15:13

All times are UTC + 5



You cannot post new topics in this forum
You cannot reply to topics in this forum
You cannot edit your posts in this forum
You cannot delete your posts in this forum
You cannot vote in polls in this forum
You cannot attach files in this forum
You can download files in this forum










!ATTENTION!
The site does not give electronic versions of products, and is engaged only in a collecting and cataloguing of the references sent and published at a forum by our readers. If you are the legal owner of any submitted material and do not wish that the reference to it was in our catalogue, contact us and we shall immediately remove her. Files for an exchange on tracker are given by users of a site, and the administration does not bear the responsibility for their maintenance. The request to not fill in the files protected by copyrights, and also files of the illegal maintenance!