Юные соблазнительницы 3 / Blutjunge Verführerinnen 3. Teil (1972) BDRip 1080p | A

DL-List and Torrent activity [Update ]
Size:  7.91 GB   |    Registered:  5 years 8 months   |    Completed:  34 times
Seeders:  493  [  0 KB/s  ]   Leechers:  102  [  0 KB/s  ]  
 
     
 
 
Author Message

***DrJoker*** ®

Gender: Male

Longevity: 5 years 8 months

Posts: 1378

Наличие запрета:


Карма  140 

Location: Россия



: 13 ()

Активный релизер  (50 релизов) (1) Самый скачиваемый релиз (1) От администрации (1) Активный релизер (500 релизов) (1)
Помощь (1) Активисту (1) Активный релизер  (1000 релизов) (1) За внесенный вклад в развитие сайта (1)
Активный релизер  (250 и более релизов) (1) Реализация решений (1) Активный релизер  (150 релизов) (1) Активный релизер  (100 релизов) (1)

Post 03-Nov-2015 22:17

[Quote]


Информация о фильме
Название: Юные соблазнительницы 3 / Блондинка с аппетитной попкой
Оригинальное название: Blutjunge Verführerinnen 3. Teil / Die Blonde mit dem süssen Busen
Год выпуска: 1972
Жанр: Комедия, эротика
Режиссер: Эрвин С. Дитрих
В ролях: Ингрид Штегер, Карин Хофманн, Надин де Ранго, Читта Корай, Маргрит Сигел, Рафаэль Бриттен, Ролф Хёби, Клаудия Филерс, Йюрг Корэ, Карло Монти, Чарльз Веттер, Макс Кроттет, Рена Берген, Роман Хубер, Дженни Джонс, Кристиан Ван Берген
О фильме: Путешествующая автостопом молодая девушка рассказывает человеку, который её подбирает, о сексуальных авантюрах своих друзей.

Страна: Швейцария
Студия: Ascot Elite, VIP
Продолжительность: 01:25:45
Перевод: Авторский одноголосый (Юрий Муравский)
Файл
Кодек: MPEG-4 AVC
Качество: BDRip (1080p)
Видео: 10.7 Мбит/с, 1920x1040
Звук: Русский (AC3, 2 ch, 192 Кбит/с), немецкий, английский, французский (DTS, 2 ch, 768 Кбит/с)

Скриншоты

Инфо-файл

Общее
Уникальный идентификатор : 223791071952578987443177505453019085459 (0xA85C97B99D40FA5D95E92CDADFD1BA93)
Полное имя : Blutjunge Verfuhrerinnen 3. Teil. 1972. BDRip 1080p - ylnian.mkv
Формат : Matroska
Версия формата : Version 4 / Version 2
Размер файла : 7,91 Гбайт
Продолжительность : 1 ч. 25 м.
Общий поток : 13,2 Мбит/сек
Название фильма : Blutjunge Verfuhrerinnen 3. Teil. 1972. BDRip 1080p - ylnian
Дата кодирования : UTC 2015-09-08 17:01:58
Программа кодирования : mkvmerge v8.2.0 ('World of Adventure') 64bit
Библиотека кодирования : libebml v1.3.1 + libmatroska v1.4.2
Видео
Идентификатор : 1
Формат : AVC
Формат/Информация : Advanced Video Codec
Профиль формата : High@L4.1
Параметр CABAC формата : Да
Параметр ReFrames формата : 4 кадра
Идентификатор кодека : V_MPEG4/ISO/AVC
Продолжительность : 1 ч. 25 м.
Битрейт : 10,7 Мбит/сек
Ширина : 1920 пикселей
Высота : 1040 пикселей
Соотношение сторон : 1,85:1
Режим частоты кадров : Постоянный
Частота кадров : 24,000 кадра/сек
Цветовое пространство : YUV
Субдискретизация насыщенности : 4:2:0
Битовая глубина : 8 бит
Тип развёртки : Прогрессивная
Бит/(Пиксели*Кадры) : 0.223
Размер потока : 6,25 Гбайт (79%)
Заголовок : Blutjunge Verfuhrerinnen 3. Teil. 1972. BDRip 1080p - ylnian
Библиотека кодирования : x264 core 129 r2230 1cffe9f
Настройки программы : cabac=1 / ref=4 / deblock=1:-3:-3 / analyse=0x3:0x133 / me=umh / subme=11 / psy=1 / psy_rd=1.00:0.15 / mixed_ref=1 / me_range=32 / chroma_me=1 / trellis=2 / 8x8dct=1 / cqm=0 / deadzone=21,11 / fast_pskip=1 / chroma_qp_offset=-5 / threads=12 / lookahead_threads=2 / sliced_threads=0 / nr=0 / decimate=1 / interlaced=0 / bluray_compat=0 / constrained_intra=0 / bframes=11 / b_pyramid=2 / b_adapt=2 / b_bias=0 / direct=2 / weightb=1 / open_gop=0 / weightp=2 / keyint=230 / keyint_min=23 / scenecut=40 / intra_refresh=0 / rc_lookahead=60 / rc=2pass / mbtree=1 / bitrate=10700 / ratetol=1.0 / qcomp=0.60 / qpmin=0 / qpmax=69 / qpstep=4 / cplxblur=20.0 / qblur=0.5 / ip_ratio=1.40 / aq=1:1.00
Язык : German
Default : Да
Forced : Да
Аудио #1
Идентификатор : 2
Формат : AC-3
Формат/Информация : Audio Coding 3
Расширение режима : CM (complete main)
Параметр Endianness формата : Big
Идентификатор кодека : A_AC3
Продолжительность : 1 ч. 25 м.
Вид битрейта : Постоянный
Битрейт : 192 Кбит/сек
Каналы : 2 канала
Расположение каналов : Front: L R
Частота : 48,0 КГц
Метод сжатия : С потерями
Размер потока : 118 Мбайт (1%)
Заголовок : AVO (Юрий Муравский) (AC3 2.0 192 kbps)
Язык : Russian
Default : Да
Forced : Да
Аудио #2
Идентификатор : 3
Формат : DTS
Формат/Информация : Digital Theater Systems
Режим : 16
Параметр Endianness формата : Big
Идентификатор кодека : A_DTS
Продолжительность : 1 ч. 25 м.
Вид битрейта : Постоянный
Битрейт : 768 Кбит/сек
Каналы : 2 канала
Расположение каналов : Front: L R
Частота : 48,0 КГц
Битовая глубина : 24 бит
Метод сжатия : С потерями
Размер потока : 471 Мбайт (6%)
Заголовок : DTS 2.0 768 kbps
Язык : German
Default : Нет
Forced : Нет
Аудио #3
Идентификатор : 4
Формат : DTS
Формат/Информация : Digital Theater Systems
Режим : 16
Параметр Endianness формата : Big
Идентификатор кодека : A_DTS
Продолжительность : 1 ч. 25 м.
Вид битрейта : Постоянный
Битрейт : 768 Кбит/сек
Каналы : 2 канала
Расположение каналов : Front: L R
Частота : 48,0 КГц
Битовая глубина : 24 бит
Метод сжатия : С потерями
Размер потока : 471 Мбайт (6%)
Заголовок : DTS 2.0 768 kbps
Язык : English
Default : Нет
Forced : Нет
Аудио #4
Идентификатор : 5
Формат : DTS
Формат/Информация : Digital Theater Systems
Режим : 16
Параметр Endianness формата : Big
Идентификатор кодека : A_DTS
Продолжительность : 1 ч. 25 м.
Вид битрейта : Постоянный
Битрейт : 768 Кбит/сек
Каналы : 2 канала
Расположение каналов : Front: L R
Частота : 48,0 КГц
Битовая глубина : 24 бит
Метод сжатия : С потерями
Размер потока : 471 Мбайт (6%)
Заголовок : DTS 2.0 768 kbps
Язык : French
Default : Нет
Forced : Нет
Меню
00:00:00.000 : de:00:00:00.000
00:17:55.833 : de:00:17:55.833
00:25:03.708 : de:00:25:03.708
00:33:25.708 : de:00:33:25.708
00:40:23.292 : de:00:40:23.292
00:51:36.583 : de:00:51:36.583
00:57:59.917 : de:00:57:59.917
01:11:16.500 : de:01:11:16.500
Сейчас вы смотрите Юные соблазнительницы 3 / Blutjunge Verführerinnen 3. Teil (1972) BDRip 1080p | A,не забываем оставлять комментарии!
Юные соблазнительницы 3 / Blutjunge Verführerinnen 3. Teil (1972) BDRip 1080p | A [mytorrnado.ru].t68.torrent 
Torrent: Registered [ 2015-11-03 22:17 ] · E0FF55A39D1072C4143D8177D82217CA4097DA50 Google it!

Download .torrent

20 KB

Status: checked
Completed: 34 times
Тип торрента: Публичный  - Seed: 493;  Leeh: 102    
Size: 7.91 GB
Поделиться:
FAQ:
 
Как качать?
Как качать?
X
Скачайте торрент и откройте его в своем клиенте
uTorrent

скачать программу,
дождитесь окончания загрузки.
Если торрент закрыт? Инстркуция.
* Как смотреть?
Как смотреть?
X

Для работы Magic Player
Вам необходимо установить
Ace Stream P2P Multimedia Plug-in

Установить

Для работы Magic Player Вам необходимо включить
Ace Stream P2P Multimedia Plug-in

Инструкция
terms.php
Похожие темы




Запрещено категорически:
» Развязывать разборки (для этого есть ЛС)
» Оставлять комментарии, не относящиеся к содержанию материала.
» Добавлять спам, рекламу флуд..
К спаму относится:
1. Реклама любого направления.
2. Ссылки на сторонние ресурсы рекламного характера.
3. Ссылки на ресурсы порнографического направления.
4. Сылки на блоги и им подбным контeнтам.
» Запрещено оскорбление администрации, модераторов и пользователей.
» Часто писать с вкл. Caps Lock
»За нарушение правил бан или отключение без объяснений.
Уважайте чужой труд!

Правила могут дополняться и изменяться. С уважением Администрация.
[Profile] [PM]
Display posts    
Reply to topic

Current time is: 01-Aug 15:31

All times are UTC + 5



You cannot post new topics in this forum
You cannot reply to topics in this forum
You cannot edit your posts in this forum
You cannot delete your posts in this forum
You cannot vote in polls in this forum
You cannot attach files in this forum
You can download files in this forum










!ATTENTION!
The site does not give electronic versions of products, and is engaged only in a collecting and cataloguing of the references sent and published at a forum by our readers. If you are the legal owner of any submitted material and do not wish that the reference to it was in our catalogue, contact us and we shall immediately remove her. Files for an exchange on tracker are given by users of a site, and the administration does not bear the responsibility for their maintenance. The request to not fill in the files protected by copyrights, and also files of the illegal maintenance!