Тело / The Body / El cuerpo (2012) BDRip 720p | A

DL-List and Torrent activity [Update ]
Size:  6.62 GB   |    Registered:  5 years 8 months   |    Completed:  27 times
Seeders:  3  [  0 KB/s  ]   Leechers:  53  [  0 KB/s  ]  
 
     
 
 
Author Message

Иваныч ®

Gender: Male

Longevity: 5 years 8 months

Posts: 8200

Наличие запрета:


Карма  175 

Location: Россия,Курган



: 19 ()

Техпддержка (1) От администрации (1) Активному релизеру (5000 раздач) (1) Реализация решений (1)
От администрации (1) Активисту (1) Активный релизер  (200 релизов) (1) Активный релизер  (1000 релизов) (1)
Помощь (1) За внесенный вклад в развитие сайта (1) Активный релизер  (50 релизов) (1) Активный релизер  (3000 релизов) (1)

Post 10-Nov-2015 15:23

[Quote]


Название: Тело
Оригинальное название: El cuerpo (The Body)
Год выпуска: 2012
Жанр: Триллер, детектив
Выпущено: Испания, Antena 3 Films, Canal+ España, Rodar y Rodar Cine y Televisión S.L.
Режиссер: Ориол Паоло
В ролях: Белен Руэда, Уго Силва, Аура Гарридо, Хосе Коронадо, Хуан Пабло Шук, Наусикая Боннин, Кристина Пласас, Ориол Вила, Патриция Баргальо, Хорди Планас
О фильме: Грузовик сбивает человека, убегающего от кого-то или от чего-то в панике. Прибывшие на место полицейские выясняют, что погибший — ночной сторож из близлежащего морга. Так что так напугало несчастного? И куда делся из отсека N3 недавно привезенный в морг труп?

Качество: BDRip 720p
Видео: MPEG-4 AVC, 5338 Кбит/с, 1280х536, 24.000 кадр/с
Аудио: Русский, испанский (DTS, 6 ch, 1510 Кбит/с)
Продолжительность: 01:51:11
Перевод: Авторский одноголосый [Карповский]
Субтитры: Английские, испанские

Скриншоты

MediaInfo

File: D:ВидеоEl.cuerpo.2012.720p.BluRay.Rus.Spa.HDCLUB.mkv
General
Unique ID : 252050061429431579920004073886482443222 (0xBD9F1379EC7977F086660BFDC6E42BD6)
Complete name : D:ВидеоEl.cuerpo.2012.720p.BluRay.Rus.Spa.HDCLUB.mkv
Format : Matroska
Format version : Version 2
File size : 6.62 GiB
Duration : 1h 51mn
Overall bit rate : 8 526 Kbps
Movie name : El cuerpo (2012) - Release for HDCLUB
Encoded date : UTC 2014-05-26 13:31:37
Writing application : mkvmerge v5.7.0 ('The Whirlwind') built on Jul 8 2012 20:08:51
Writing library : libebml v1.2.3 + libmatroska v1.3.0
Video
ID : 1
Format : AVC
Format/Info : Advanced Video Codec
Format profile : High@L4.1
Format settings, CABAC : Yes
Format settings, ReFrames : 12 frames
Codec ID : V_MPEG4/ISO/AVC
Duration : 1h 51mn
Bit rate : 5 338 Kbps
Width : 1 280 pixels
Height : 536 pixels
Display aspect ratio : 2.40:1
Frame rate mode : Constant
Frame rate : 24.000 fps
Color space : YUV
Chroma subsampling : 4:2:0
Bit depth : 8 bits
Scan type : Progressive
Bits/(Pixel*Frame) : 0.324
Stream size : 4.15 GiB (63%)
Writing library : x264 core 133 r2334 a3ac64b
Encoding settings : cabac=1 / ref=12 / deblock=1:-3:-3 / analyse=0x3:0x133 / me=tesa / subme=11 / psy=1 / psy_rd=1.05:0.00 / mixed_ref=1 / me_range=16 / chroma_me=1 / trellis=2 / 8x8dct=1 / cqm=0 / deadzone=21,11 / fast_pskip=0 / chroma_qp_offset=-2 / threads=12 / lookahead_threads=2 / sliced_threads=0 / nr=0 / decimate=1 / interlaced=0 / bluray_compat=0 / constrained_intra=0 / bframes=9 / b_pyramid=2 / b_adapt=2 / b_bias=0 / direct=3 / weightb=1 / open_gop=0 / weightp=2 / keyint=250 / keyint_min=24 / scenecut=40 / intra_refresh=0 / rc=crf / mbtree=0 / crf=16.5 / qcomp=0.75 / qpmin=0 / qpmax=69 / qpstep=4 / ip_ratio=1.40 / pb_ratio=1.30 / aq=1:0.75
Language : English
Default : Yes
Forced : No
Audio #1
ID : 2
Format : DTS
Format/Info : Digital Theater Systems
Mode : 16
Format settings, Endianness : Big
Codec ID : A_DTS
Duration : 1h 51mn
Bit rate mode : Constant
Bit rate : 1 509 Kbps
Channel(s) : 6 channels
Channel positions : Front: L C R, Side: L R, LFE
Sampling rate : 48.0 KHz
Bit depth : 24 bits
Compression mode : Lossy
Stream size : 1.17 GiB (18%)
Title : |Одноголосый закадровый, А.Карповский|
Language : Russian
Default : Yes
Forced : No
Audio #2
ID : 3
Format : DTS
Format/Info : Digital Theater Systems
Mode : 16
Format settings, Endianness : Big
Codec ID : A_DTS
Duration : 1h 51mn
Bit rate mode : Constant
Bit rate : 1 509 Kbps
Channel(s) : 6 channels
Channel positions : Front: L C R, Side: L R, LFE
Sampling rate : 48.0 KHz
Bit depth : 24 bits
Compression mode : Lossy
Stream size : 1.17 GiB (18%)
Language : Spanish
Default : No
Forced : No
Text #1
ID : 4
Format : UTF-8
Codec ID : S_TEXT/UTF8
Codec ID/Info : UTF-8 Plain Text
Language : English
Default : No
Forced : No
Text #2
ID : 5
Format : UTF-8
Codec ID : S_TEXT/UTF8
Codec ID/Info : UTF-8 Plain Text
Language : Spanish
Default : No
Forced : No
Menu
00:00:00.000 : en:00:00:00.000
00:08:30.000 : en:00:08:30.000
00:18:20.000 : en:00:18:20.000
00:26:33.000 : en:00:26:33.000
00:36:05.000 : en:00:36:05.000
00:45:13.000 : en:00:45:13.000
00:52:10.000 : en:00:52:10.000
01:00:11.000 : en:01:00:11.000
01:08:29.000 : en:01:08:29.000
01:16:49.000 : en:01:16:49.000
01:28:19.000 : en:01:28:19.000
01:34:22.000 : en:01:34:22.000
Релиз от:
Сейчас вы смотрите Тело / The Body / El cuerpo (2012) BDRip 720p | A,не забываем оставлять комментарии!
Тело / The Body / El cuerpo (2012) BDRip 720p | A [mytorrnado.ru].t691.torrent 
Torrent: Registered [ 2015-11-10 15:23 ] · 5A0C57FA69E3CF94E2F44C9929130FC142C04BB4 Google it!

Download .torrent

34 KB

Status: checked
Completed: 27 times
Тип торрента: Публичный  - Seed: 3;  Leeh: 53    
Size: 6.62 GB
Поделиться:
FAQ:
 
Как качать?
Как качать?
X
Скачайте торрент и откройте его в своем клиенте
uTorrent

скачать программу,
дождитесь окончания загрузки.
Если торрент закрыт? Инстркуция.
* Как смотреть?
Как смотреть?
X

Для работы Magic Player
Вам необходимо установить
Ace Stream P2P Multimedia Plug-in

Установить

Для работы Magic Player Вам необходимо включить
Ace Stream P2P Multimedia Plug-in

Инструкция
terms.php
Похожие темы




Запрещено категорически:
» Развязывать разборки (для этого есть ЛС)
» Оставлять комментарии, не относящиеся к содержанию материала.
» Добавлять спам, рекламу флуд..
К спаму относится:
1. Реклама любого направления.
2. Ссылки на сторонние ресурсы рекламного характера.
3. Ссылки на ресурсы порнографического направления.
4. Сылки на блоги и им подбным контeнтам.
» Запрещено оскорбление администрации, модераторов и пользователей.
» Часто писать с вкл. Caps Lock
»За нарушение правил бан или отключение без объяснений.
Уважайте чужой труд!

Правила могут дополняться и изменяться. С уважением Администрация.
[Profile] [PM]
Display posts    
Reply to topic

Current time is: 24-Jul 10:39

All times are UTC + 5



You cannot post new topics in this forum
You cannot reply to topics in this forum
You cannot edit your posts in this forum
You cannot delete your posts in this forum
You cannot vote in polls in this forum
You cannot attach files in this forum
You can download files in this forum










!ATTENTION!
The site does not give electronic versions of products, and is engaged only in a collecting and cataloguing of the references sent and published at a forum by our readers. If you are the legal owner of any submitted material and do not wish that the reference to it was in our catalogue, contact us and we shall immediately remove her. Files for an exchange on tracker are given by users of a site, and the administration does not bear the responsibility for their maintenance. The request to not fill in the files protected by copyrights, and also files of the illegal maintenance!