Дикий город / Bou Chau Mai Sing (2015) HDRip | L2

DL-List and Torrent activity [Update ]
Size:  1.37 GB   |    Registered:  5 years 8 months   |    Completed:  29 times
Seeders:  410  [  0 KB/s  ]   Leechers:  276  [  0 KB/s  ]  
 
     
 
 
Author Message

***DrJoker*** ®

Gender: Male

Longevity: 5 years 8 months

Posts: 1378

Наличие запрета:


Карма  140 

Location: Россия



: 13 ()

Активный релизер  (1000 релизов) (1) От администрации (1) Активисту (1) За внесенный вклад в развитие сайта (1)
Активный релизер (500 релизов) (1) Помощь (1) Реализация решений (1) Активный релизер  (50 релизов) (1)
Активный релизер  (200 релизов) (1) Активный релизер  (150 релизов) (1) Активный релизер  (100 релизов) (1) Самый скачиваемый релиз (1)

Post 11-Nov-2015 21:03

[Quote]

Информация о фильме
Название: Дикий город
Оригинальное название: Wild City / Bou Chau Mai Sing
Год выхода: 2015
Жанр: боевик, триллер, криминал
Режиссер: Ринго Лам
В ролях: Луис Ку, Шон Юе, Лия Тун, Сяо-Чуань Чан, Джек Као, Сэм Ли, Филип Нг, Дейв Вон, Саймон Ям
О фильме:
Отставной полицейский, содержащий бар, помогает пьяной девушке и привозит ее домой. Когда его брат отправляется, чтобы проводить, проспавшуюся после бурной ночи девушку, на них нападают бандиты и увозят незнакомку в неизвестном направлении. Он бросается ее спасать, понимая, что все больше погружается пучину лжи и преступлений, который он, верный зову полицейского долга, должен будет распутать и восстановить справделивость.
Страна: Гонконг
Студия: Beijing East Light Film Co., Mei Ah Films Production Co. Ltd., One Cool Film Production
Продолжительность: 01:41:28
Перевод: Любительский (двухголосый, закадровый) [den904 & DeadSno]

Файл
Качество: HDRip
Формат: AVI
Видео кодек: XviD
Аудио кодек: AC3
Видео: 720x304 (2.35:1), 24.000 fps, XviD 73 ~1 655 kbps avg, 0.315 bits/рixel
Аудио: 48.0 kHz, AC3 Dolby Digital, 2/0 (L,R) ch, ~192 kbps avg
Субтитры: нет
Дата премьеры (мир): 25 июля 2015

Media Info

General
Complete name : Wild.City.2015.L2.HDRip.avi
Format : AVI
Format/Info : Audio Video Interleave
File size : 1.37 GiB
Duration : 1h 41mn
Overall bit rate : 1 932 Kbps
Writing application : VirtualDubMod 1.5.10.3 | (build 2550/release)
Writing library : VirtualDubMod build 2550/release
Video
ID : 0
Format : MPEG-4 Visual
Format profile : Advanced Simple@L5
Format settings, BVOP : 2
Format settings, QPel : No
Format settings, GMC : No warppoints
Format settings, Matrix : Default (MPEG)
Codec ID : XVID
Codec ID/Hint : XviD
Duration : 1h 41mn
Bit rate : 1 655 Kbps
Width : 720 pixels
Height : 304 pixels
Display aspect ratio : 2.35:1
Frame rate : 24.000 fps
Color space : YUV
Chroma subsampling : 4:2:0
Bit depth : 8 bits
Scan type : Progressive
Compression mode : Lossy
Bits/(Pixel*Frame) : 0.315
Stream size : 1.17 GiB (86%)
Writing library : XviD 73
Audio
ID : 1
Format : AC-3
Format/Info : Audio Coding 3
Mode extension : CM (complete main)
Format settings, Endianness : Big
Codec ID : 2000
Duration : 1h 41mn
Bit rate mode : Constant
Bit rate : 192 Kbps
Channel(s) : 2 channels
Channel positions : Front: L R
Sampling rate : 48.0 KHz
Bit depth : 16 bits
Compression mode : Lossy
Stream size : 139 MiB (10%)
Alignment : Split accross interleaves

Скриншоты

Сейчас вы смотрите Дикий город / Bou Chau Mai Sing (2015) HDRip | L2,не забываем оставлять комментарии!
Дикий город / Bou Chau Mai Sing (2015) HDRip | L2 [mytorrnado.ru].t774.torrent 
Torrent: Registered [ 2015-11-11 21:03 ] · 7272118473C65043CEB082BE2D607872F2392D38 Google it!

Download .torrent

14 KB

Status: checked
Completed: 29 times
Тип торрента: Публичный  - Seed: 410;  Leeh: 276    
Size: 1.37 GB
Поделиться:
FAQ:
 
Как качать?
Как качать?
X
Скачайте торрент и откройте его в своем клиенте
uTorrent

скачать программу,
дождитесь окончания загрузки.
Если торрент закрыт? Инстркуция.
* Как смотреть?
Как смотреть?
X

Для работы Magic Player
Вам необходимо установить
Ace Stream P2P Multimedia Plug-in

Установить

Для работы Magic Player Вам необходимо включить
Ace Stream P2P Multimedia Plug-in

Инструкция
terms.php
Похожие темы




Запрещено категорически:
» Развязывать разборки (для этого есть ЛС)
» Оставлять комментарии, не относящиеся к содержанию материала.
» Добавлять спам, рекламу флуд..
К спаму относится:
1. Реклама любого направления.
2. Ссылки на сторонние ресурсы рекламного характера.
3. Ссылки на ресурсы порнографического направления.
4. Сылки на блоги и им подбным контeнтам.
» Запрещено оскорбление администрации, модераторов и пользователей.
» Часто писать с вкл. Caps Lock
»За нарушение правил бан или отключение без объяснений.
Уважайте чужой труд!

Правила могут дополняться и изменяться. С уважением Администрация.
[Profile] [PM]
Display posts    
Reply to topic

Current time is: 01-Aug 16:21

All times are UTC + 5



You cannot post new topics in this forum
You cannot reply to topics in this forum
You cannot edit your posts in this forum
You cannot delete your posts in this forum
You cannot vote in polls in this forum
You cannot attach files in this forum
You can download files in this forum










!ATTENTION!
The site does not give electronic versions of products, and is engaged only in a collecting and cataloguing of the references sent and published at a forum by our readers. If you are the legal owner of any submitted material and do not wish that the reference to it was in our catalogue, contact us and we shall immediately remove her. Files for an exchange on tracker are given by users of a site, and the administration does not bear the responsibility for their maintenance. The request to not fill in the files protected by copyrights, and also files of the illegal maintenance!