Озеро страха: Анаконда / Lake Placid vs. Anaconda (А.Б. Стоун / A.B. Stone) [2015, США, ужасы, фантастика, боевик, WEB-DLRip] MVO (iTunes) :: Spam

DL-List and Torrent activity [Update ]
Size:  1.37 GB   |    Registered:  5 years 8 months   |    Completed:  23 times

Seeder not seen: Never

 
     
 
 
 
Author Message

***DrJoker*** ®

Gender: Male

Longevity: 5 years 8 months

Posts: 1378

Наличие запрета:


Карма  140 

Location: Россия



: 13 ()

За внесенный вклад в развитие сайта (1) Активный релизер  (1000 релизов) (1) Активный релизер  (250 и более релизов) (1) Активисту (1)
Помощь (1) От администрации (1) Активный релизер  (150 релизов) (1) Реализация решений (1)
Активный релизер  (200 релизов) (1) Самый скачиваемый релиз (1) Активный релизер (500 релизов) (1) Активный релизер  (50 релизов) (1)

Post 11-Nov-2015 21:49

[Quote]

Озеро страха: Анаконда / Lake Placid vs. Anaconda
Страна: США
Жанр: ужасы, фантастика, боевик
Год выпуска: 2015
Продолжительность: 01:31:35
Перевод: Профессиональный (многоголосый закадровый) iTunes
Cубтитры: нет
Оригинальная аудиодорожка: нет
Режиссер: А.Б. Стоун / A.B. Stone
В ролях: Корин Немек, Янси Батлер, Стивен Биллингтон, Скай Лоури, Оливер Уолкер, Али Эгил, Анабель Райт, Лаура Дэйл, Джорджина Филиппс, Найджел Барбер, Роберт Энглунд
Описание: Гигантский аллигатор хочет сразиться с не менее гигантской Анакондой. Городской шериф должен найти способ уничтожить двух монстров, прежде чем они уничтожат весь город.
Сэмпл: http://multi-up.com/1063658
Качество видео: WEB-DLRip
Формат видео: AVI
Видео: Xvid 720x400 23.98fps 1 745 Kbps
Аудио: Dolby AC3 48000Hz 6ch 384kbps

MediaInfo

Format : AVI
Format/Info : Audio Video Interleave
File size : 1.37 GiB
Duration : 1h 31mn
Overall bit rate : 2 138 Kbps
Writing application : VirtualDubMod 1.5.10.3 | www.virtualdub-fr.org || (build 2550/release)
Writing library : VirtualDubMod build 2550/release
Video
ID : 0
Format : MPEG-4 Visual
Format profile : Advanced Simple@L5
Format settings, BVOP : Yes
Format settings, QPel : No
Format settings, GMC : No warppoints
Format settings, Matrix : Default (MPEG)
Codec ID : XVID
Codec ID/Hint : XviD
Duration : 1h 31mn
Bit rate : 1 745 Kbps
Width : 720 pixels
Height : 400 pixels
Display aspect ratio : 16:9
Frame rate : 23.976 fps
Resolution : 8 bits
Colorimetry : 4:2:0
Scan type : Progressive
Bits/(Pixel*Frame) : 0.253
Stream size : 1.12 GiB (82%)
Writing library : XviD 1.2.1 (UTC 2008-12-04)
Audio
ID : 1
Format : AC-3
Format/Info : Audio Coding 3
Codec ID : 2000
Duration : 1h 31mn
Bit rate mode : Constant
Bit rate : 384 Kbps
Channel(s) : 6 channels
Channel positions : Front: L C R, Surround: L R, LFE
Sampling rate : 48.0 KHz
Stream size : 252 MiB (18%)
Alignment : Split accross interleaves
Interleave, duration : 42 ms (1.00 video frame)
Interleave, preload duration : 500 ms

Скриншот c названием фильма

Скриншоты

Сейчас вы смотрите Озеро страха: Анаконда / Lake Placid vs. Anaconda (А.Б. Стоун / A.B. Stone) [2015, США, ужасы, фантастика, боевик, WEB-DLRip] MVO (iTunes) :: Spam,не забываем оставлять комментарии!
Озеро страха: Анаконда / Lake Placid vs. Anaconda (А.Б. Стоун / A.B. Stone) [2015, США, ужасы, фантастика, боевик, WEB-DLRip] MVO (iTunes) :: Spam [mytorrnado.ru].t782.torrent 
Torrent: Registered [ 2015-11-11 21:50 ] · 78767CE7B636676A0F19EFA58608298562BBA2ED Google it!

Download .torrent

14 KB

Status: checked
Completed: 23 times
Тип торрента:    
Size: 1.37 GB
Поделиться:
FAQ:
 
Как качать?
Как качать?
X
Скачайте торрент и откройте его в своем клиенте
uTorrent

скачать программу,
дождитесь окончания загрузки.
Если торрент закрыт? Инстркуция.
* Как смотреть?
Как смотреть?
X

Для работы Magic Player
Вам необходимо установить
Ace Stream P2P Multimedia Plug-in

Установить

Для работы Magic Player Вам необходимо включить
Ace Stream P2P Multimedia Plug-in

Инструкция
terms.php
Похожие темы




Запрещено категорически:
» Развязывать разборки (для этого есть ЛС)
» Оставлять комментарии, не относящиеся к содержанию материала.
» Добавлять спам, рекламу флуд..
К спаму относится:
1. Реклама любого направления.
2. Ссылки на сторонние ресурсы рекламного характера.
3. Ссылки на ресурсы порнографического направления.
4. Сылки на блоги и им подбным контeнтам.
» Запрещено оскорбление администрации, модераторов и пользователей.
» Часто писать с вкл. Caps Lock
»За нарушение правил бан или отключение без объяснений.
Уважайте чужой труд!

Правила могут дополняться и изменяться. С уважением Администрация.
[Profile] [PM]
Display posts    
Reply to topic

Current time is: 24-Jul 17:09

All times are UTC + 5



You cannot post new topics in this forum
You cannot reply to topics in this forum
You cannot edit your posts in this forum
You cannot delete your posts in this forum
You cannot vote in polls in this forum
You cannot attach files in this forum
You can download files in this forum










!ATTENTION!
The site does not give electronic versions of products, and is engaged only in a collecting and cataloguing of the references sent and published at a forum by our readers. If you are the legal owner of any submitted material and do not wish that the reference to it was in our catalogue, contact us and we shall immediately remove her. Files for an exchange on tracker are given by users of a site, and the administration does not bear the responsibility for their maintenance. The request to not fill in the files protected by copyrights, and also files of the illegal maintenance!