Красный барон / The Red Baron (Жуль Басс / Jules Bass, Артур Ранкин мл. / Arthur Rankin Jr.) [1972, приключения, семейный, DVDRip]

DL-List and Torrent activity [Update ]
Size:  742 MB   |    Registered:  5 years 8 months   |    Completed:  31 times

Seeder not seen: Never

 
     
 
 
 
Author Message

***DrJoker*** ®

Gender: Male

Longevity: 5 years 8 months

Posts: 1378

Наличие запрета:


Карма  140 

Location: Россия



: 13 ()

Активный релизер  (250 и более релизов) (1) Активный релизер  (1000 релизов) (1) Помощь (1) Активный релизер  (100 релизов) (1)
Активный релизер  (50 релизов) (1) Активный релизер  (200 релизов) (1) Активный релизер  (150 релизов) (1) От администрации (1)
Реализация решений (1) За внесенный вклад в развитие сайта (1) Самый скачиваемый релиз (1) Активисту (1)

Post 11-Nov-2015 22:11

[Quote]

Красный барон / The Red Baron
Страна: США
Жанр: приключения, семейный
Продолжительность: 00:43:51
Год выпуска: 1972
Перевод: Профессиональный (многоголосый закадровый)
Русские субтитры: нет

Режиссёр: Жуль Басс / Jules Bass, Артур Ранкин мл. / Arthur Rankin Jr.
Описание: Дочь короля Каспера Презельстейнского, принцесса София, похищена коварным принцем Генрихом Винербергским. Отец во чтобы то ни стало намерен вернуть дочь домой. Для этого он снаряжает целую воздушную эскадрилью во главе с отважным Красным Бароном. Но, как выясняется, все не так просто, как кажется на первый взгляд. И, тем не менее, Красному Барону удается, не взирая на препятствия, с честью выполнить задание.
Качество: DVDRip
Формат: AVI
Видео: 624x480 (1.30:1), 25 fps, XviD build 73 ~2131 kbps avg, 0.28 bit/pixel
Аудио: 48 kHz, AC3 Dolby Digital, 2/0 (L,R) ch, ~224 kbps
Субтитры: отсутствуют

Подробные технические данные

ОбщееПолное имя : H:\The.Red.Baron.1972.dvdrip_[745]_[teko].aviФормат : AVIФормат/Информация : Audio Video InterleaveРазмер файла : 742 МбайтПродолжительность : 43 м.Общий поток : 2366 Кбит/секПрограмма кодирования : VirtualDubMod 1.5.10.3 | www.virtualdub-fr.org || (build 2550/release)Библиотека кодирования : VirtualDubMod build 2550/release
ВидеоИдентификатор : 0Формат : MPEG-4 VisualПрофиль формата : Advanced Simple@L5Параметр BVOP формата : 2Параметр QPel формата : НетПараметр GMC формата : Без точки переходаПараметр матрицы формата : ВыборочнаяИдентификатор кодека : XVIDИдентификатор кодека/Подсказка : XviDПродолжительность : 43 м.Битрейт : 2132 Кбит/секШирина : 624 пикселяВысота : 480 пикселейСоотношение сторон : 4:3Частота кадров : 25,000 кадров/секЦветовое пространство : YUVСубдискретизация насыщенности : 4:2:0Битовая глубина : 8 битТип развёртки : ПрогрессивнаяМетод сжатия : С потерямиБит/(Пиксели*Кадры) : 0.285Размер потока : 669 Мбайт (90%)Библиотека кодирования : XviD 73
АудиоИдентификатор : 1Формат : AC-3Формат/Информация : Audio Coding 3Расширение режима : CM (complete main)Параметр Endianness формата : BigИдентификатор кодека : 2000Продолжительность : 43 м.Вид битрейта : ПостоянныйБитрейт : 224 Кбит/секКаналы : 2 каналаРасположение каналов : Front: L RЧастота : 48,0 КГцБитовая глубина : 16 битМетод сжатия : С потерямиРазмер потока : 70,3 Мбайт (9%)Выравнивание : Разделение по промежуткамПродолжительность промежутка : 40 мс. (1,00 видеокадр)Время предзагрузки промежутка : 500 мс.
Релиз группы:
--
Сейчас вы смотрите Красный барон / The Red Baron (Жуль Басс / Jules Bass, Артур Ранкин мл. / Arthur Rankin Jr.) [1972, приключения, семейный, DVDRip],не забываем оставлять комментарии!
Красный барон / The Red Baron (Жуль Басс / Jules Bass, Артур Ранкин мл. / Arthur Rankin Jr.) [1972, приключения, семейный, DVDRip] [mytorrnado.ru].t787.torrent 
Torrent: Registered [ 2015-11-11 22:11 ] · AA10F21D4F61AAEB0634912BB76D8E91C6058262 Google it!

Download .torrent

15 KB

Status: checked
Completed: 31 times
Тип торрента:    
Size: 742 MB
Поделиться:
FAQ:
 
Как качать?
Как качать?
X
Скачайте торрент и откройте его в своем клиенте
uTorrent

скачать программу,
дождитесь окончания загрузки.
Если торрент закрыт? Инстркуция.
* Как смотреть?
Как смотреть?
X

Для работы Magic Player
Вам необходимо установить
Ace Stream P2P Multimedia Plug-in

Установить

Для работы Magic Player Вам необходимо включить
Ace Stream P2P Multimedia Plug-in

Инструкция
terms.php
Похожие темы




Запрещено категорически:
» Развязывать разборки (для этого есть ЛС)
» Оставлять комментарии, не относящиеся к содержанию материала.
» Добавлять спам, рекламу флуд..
К спаму относится:
1. Реклама любого направления.
2. Ссылки на сторонние ресурсы рекламного характера.
3. Ссылки на ресурсы порнографического направления.
4. Сылки на блоги и им подбным контeнтам.
» Запрещено оскорбление администрации, модераторов и пользователей.
» Часто писать с вкл. Caps Lock
»За нарушение правил бан или отключение без объяснений.
Уважайте чужой труд!

Правила могут дополняться и изменяться. С уважением Администрация.
[Profile] [PM]
Display posts    
Reply to topic

Current time is: 29-Jul 17:23

All times are UTC + 5



You cannot post new topics in this forum
You cannot reply to topics in this forum
You cannot edit your posts in this forum
You cannot delete your posts in this forum
You cannot vote in polls in this forum
You cannot attach files in this forum
You can download files in this forum










!ATTENTION!
The site does not give electronic versions of products, and is engaged only in a collecting and cataloguing of the references sent and published at a forum by our readers. If you are the legal owner of any submitted material and do not wish that the reference to it was in our catalogue, contact us and we shall immediately remove her. Files for an exchange on tracker are given by users of a site, and the administration does not bear the responsibility for their maintenance. The request to not fill in the files protected by copyrights, and also files of the illegal maintenance!