Отель «Руанда» / Hotel Rwanda (2004) BDRip 1080p | P, A

DL-List and Torrent activity [Update ]
Size:  8.67 GB   |    Registered:  5 years 8 months   |    Completed:  38 times
Seeders:  1  [  0 KB/s  ]   Leechers:  14  [  0 KB/s  ]  
 
     
 
 
 
Author Message

Иваныч ®

Gender: Male

Longevity: 5 years 9 months

Posts: 8246

Наличие запрета:


Карма  175 

Location: Россия,Курган



: 19 ()

Активный релизер  (250 и более релизов) (1) Техпддержка (1) За внесенный вклад в развитие сайта (1) Помощь (1)
От администрации (1) Активный релизер (500 релизов) (1) Реализация решений (1) Активный релизер  (1000 релизов) (1)
Активный релизер  (150 релизов) (1) Активный релизер  (200 релизов) (1) Активный релизер  (50 релизов) (1) Активный релизер  (100 релизов) (1)

Post 12-Nov-2015 20:56

[Quote]

-- Информация о фильме
Название: Отель «Руанда»
Оригинальное название: Hotel Rwanda
Год выхода: 2004
Жанр: драма, военный, биография, история
Режиссер: Терри Джордж
В ролях: Дон Чидл, Софи Оконедо, Ник Нолти, Кэра Сеймур, Хоакин Феникс, Жан Рено, Колани Мали, Десмонд Дюбэ, Хаким Кае-Казим, Тони Кгороге
О фильме:
Сюжет фильма основан на реальных событиях середины 90-х годов прошлого века, когда народ хуту, составлявшее в Руанде этническое большинство, устроило в стране кровавую резню, уничтожив более миллиона человек, принадлежавших народу тутси.
Главный герой фильма по имени Пол — управляющий престижного отеля в столице Руанды, в котором от убийц укрылись несколько сотен человек. Пол делает все от него зависящее, чтобы их спасти. Ситуация осложняется тем, что жена Пола также принадлежит народу тутси. У Пола большие связи, он не гнушается ни подкупом, ни шантажом; он угрожает, умоляет, льстит… И спасает от гибели 1268 человек.

Страна: Великобритания, США, Италия, ЮАР
Продолжительность: 02:01:51
Субтитры: Русские, Английские
Главы/Чаптеры: Есть
Файл
Видеокодек: MPEG-4 AVC/H.264
Битрейт видео: ~ 8186 Кбит/сек, 1920x816, 23.976 fps, 16:9, High Profile 4.1
Аудио 1: Russian: 48 kHz, АС3, 6 ch, 448 kbps, Профессиональный [многоголосый, закадровый]
Аудио 2: Russian: 48 kHz, АС3, 6 ch, 448 kbps [одноголосый, Живов]
Аудио 3: Ukrainian: 48 kHz, АС3, 6 ch, 448 kbps [многоголосый]
Аудио 4: English: 48 kHz, АС3, 6 ch, 448 kbps--

M/I

General
Unique ID : 190658383812084257872644933001128665390 (0x8F6F7813DF221CB3B31708EEE373612E)
Complete name : E:КиноОтель «Руанда».(2004). BLU-RAY.1080p. [-=DoMiNo=-].mkv
Format : Matroska
Format version : Version 4 / Version 2
File size : 8.67 GiB
Duration : 2h 1mn
Overall bit rate : 10.2 Mbps
Movie name : Отель «Руанда»
Encoded date : UTC 2015-11-12 14:32:20
Writing application : mkvmerge v8.3.0 ('Over the Horizon') 64bit
Writing library : Lavf56.25.101
Attachements : cover.png
ORIGINAL_TITLE : Hotel Rwanda
DATE : 2004
GENRE : драма, военный, история
ENCODING_INFO : BluRay > MKV 1080p / H264 > X264 CRF 18.5 Custom / DTS-HD MA > AC3 CBR 448kbps / DTS-HD MA > AC3 CBR 448kbps
SYNOPSIS : Сюжет фильма основан на реальных событиях середины 90-х годов прошлого века, когда народ хуту, составлявшее в Руанде этническое большинство, устроило в стране кровавую резню, уничтожив более миллиона (!) человек, принадлежавших народу тутси.Главный герой фильма по имени Пол — управляющий престижного отеля в столице Руанды, в котором от убийц укрылись несколько сотен человек. Пол делает все от него зависящее, чтобы их спасти. Ситуация осложняется тем, что жена Пола также принадлежит народу тутси. У Пола большие связи, он не гнушается ни подкупом, ни шантажом; он угрожает, умоляет, льстит… И спасает от гибели 1268 человек.
ITUNEXTC : mpaa|PG-13|300|
ACTORS : Дон Чидл, Софи Оконедо, Ник Нолти, Кэра Сеймур, Хоакин Феникс, Жан Рено, Колани Мали, Десмонд Дюбэ, Хаким Кае-Казим, Тони Кгороге, показать всех
DIRECTOR : Терри Джордж
PRODUCER : Терри Джордж, А. Китман Хо, Сэм Бхэмб
WRITER : Кейр Пирсон, Терри Джордж
COUNTRY : Великобритания, США, Италия, ЮАР, Канада
RATING : 8.068
IMDB_RATING : 8.20
DURATION : 02:01:51.200000000
NUMBER_OF_FRAMES : 228475
NUMBER_OF_BYTES : 409427200
_STATISTICS_WRITING_APP : mkvmerge v8.3.0 ('Over the Horizon') 64bit
_STATISTICS_WRITING_DATE_UT : 2015-11-12 14:32:20
_STATISTICS_TAGS : BPS DURATION NUMBER_OF_FRAMES NUMBER_OF_BYTES
Video
ID : 1
Format : AVC
Format/Info : Advanced Video Codec
Format profile : High@L4.1
Format settings, CABAC : Yes
Format settings, ReFrames : 5 frames
Codec ID : V_MPEG4/ISO/AVC
Duration : 2h 1mn
Bit rate : 8 186 Kbps
Width : 1 920 pixels
Height : 816 pixels
Display aspect ratio : 2.35:1
Frame rate mode : Constant
Frame rate : 23.976 fps
Color space : YUV
Chroma subsampling : 4:2:0
Bit depth : 8 bits
Scan type : Progressive
Bits/(Pixel*Frame) : 0.218
Stream size : 6.97 GiB (80%)
Title : Отель Руанда (2004) BLU-RAY-1080p [-=DoMiNo=-]
Writing library : x264 core 148 r2638M 7599210
Encoding settings : cabac=1 / ref=5 / deblock=1:-3:-3 / analyse=0x3:0x113 / me=umh / subme=10 / psy=1 / psy_rd=1.00:0.10 / mixed_ref=1 / me_range=32 / chroma_me=1 / trellis=2 / 8x8dct=1 / cqm=0 / deadzone=21,11 / fast_pskip=0 / chroma_qp_offset=-3 / threads=5 / lookahead_threads=1 / sliced_threads=0 / nr=0 / decimate=1 / interlaced=0 / bluray_compat=0 / constrained_intra=0 / bframes=6 / b_pyramid=2 / b_adapt=2 / b_bias=0 / direct=1 / weightb=1 / open_gop=0 / weightp=2 / keyint=230 / keyint_min=23 / scenecut=40 / intra_refresh=0 / rc=crf / mbtree=0 / crf=18.5 / qcomp=0.60 / qpmin=19 / qpmax=69 / qpstep=4 / ip_ratio=1.40 / pb_ratio=1.30 / aq=2:1.00
Default : Yes
Forced : No
Color range : Limited
Color primaries : BT.709
Transfer characteristics : BT.709
Matrix coefficients : BT.709
DURATION : 02:01:51.263000000
NUMBER_OF_FRAMES : 175295
NUMBER_OF_BYTES : 7662195131
_STATISTICS_WRITING_APP : mkvmerge v8.3.0 ('Over the Horizon') 64bit
_STATISTICS_WRITING_DATE_UT : 2015-11-12 14:32:20
_STATISTICS_TAGS : BPS DURATION NUMBER_OF_FRAMES NUMBER_OF_BYTES
Audio #1
ID : 2
Format : AC-3
Format/Info : Audio Coding 3
Mode extension : CM (complete main)
Format settings, Endianness : Big
Codec ID : A_AC3
Duration : 2h 1mn
Bit rate mode : Constant
Bit rate : 448 Kbps
Channel(s) : 6 channels
Channel positions : Front: L C R, Side: L R, LFE
Sampling rate : 48.0 KHz
Compression mode : Lossy
Stream size : 390 MiB (4%)
Title : Профессиональный (многоголосый закадровый)
Language : Russian
Default : Yes
Forced : No
DURATION : 02:01:51.168000000
NUMBER_OF_FRAMES : 228474
NUMBER_OF_BYTES : 409425408
_STATISTICS_WRITING_APP : mkvmerge v8.3.0 ('Over the Horizon') 64bit
_STATISTICS_WRITING_DATE_UT : 2015-11-12 14:32:20
_STATISTICS_TAGS : BPS DURATION NUMBER_OF_FRAMES NUMBER_OF_BYTES
Audio #2
ID : 3
Format : AC-3
Format/Info : Audio Coding 3
Mode extension : CM (complete main)
Format settings, Endianness : Big
Codec ID : A_AC3
Duration : 2h 1mn
Bit rate mode : Constant
Bit rate : 448 Kbps
Channel(s) : 6 channels
Channel positions : Front: L C R, Side: L R, LFE
Sampling rate : 48.0 KHz
Compression mode : Lossy
Delay relative to video : 27ms
Stream size : 390 MiB (4%)
Title : Живов
Language : English
Default : No
Forced : No
DURATION : 02:01:51.168000000
NUMBER_OF_FRAMES : 228474
NUMBER_OF_BYTES : 409425408
_STATISTICS_WRITING_APP : mkvmerge v8.3.0 ('Over the Horizon') 64bit
_STATISTICS_WRITING_DATE_UT : 2015-11-12 14:32:20
_STATISTICS_TAGS : BPS DURATION NUMBER_OF_FRAMES NUMBER_OF_BYTES
Audio #3
ID : 4
Format : AC-3
Format/Info : Audio Coding 3
Mode extension : CM (complete main)
Format settings, Endianness : Big
Codec ID : A_AC3
Duration : 2h 1mn
Bit rate mode : Constant
Bit rate : 448 Kbps
Channel(s) : 6 channels
Channel positions : Front: L C R, Side: L R, LFE
Sampling rate : 48.0 KHz
Compression mode : Lossy
Stream size : 390 MiB (4%)
Title : Украинский, многоголосый
Language : Ukrainian
Default : No
Forced : No
Audio #4
ID : 5
Format : AC-3
Format/Info : Audio Coding 3
Mode extension : CM (complete main)
Format settings, Endianness : Big
Codec ID : A_AC3
Duration : 2h 1mn
Bit rate mode : Constant
Bit rate : 448 Kbps
Channel(s) : 6 channels
Channel positions : Front: L C R, Side: L R, LFE
Sampling rate : 48.0 KHz
Compression mode : Lossy
Delay relative to video : 27ms
Stream size : 390 MiB (4%)
Title : Eng
Language : English
Default : No
Forced : No
Text #1
ID : 6
Format : UTF-8
Codec ID : S_TEXT/UTF8
Codec ID/Info : UTF-8 Plain Text
Title : Rus
Language : Russian
Default : No
Forced : No
Text #2
ID : 7
Format : UTF-8
Codec ID : S_TEXT/UTF8
Codec ID/Info : UTF-8 Plain Text
Title : Eng
Language : English
Default : No
Forced : No
Menu
00:00:00.000 : :Глава 1
00:05:59.859 : :Глава 2
00:08:05.026 : :Глава 3
00:12:29.081 : :Глава 4
00:15:26.508 : :Глава 5
00:22:00.109 : :Глава 6
00:26:46.313 : :Глава 7
00:30:46.302 : :Глава 8
00:37:39.131 : :Глава 9
00:41:25.065 : :Глава 10
00:46:00.340 : :Глава 11
00:48:15.016 : :Глава 12
00:56:59.582 : :Глава 13
01:04:34.704 : :Глава 14
01:10:26.555 : :Глава 15
01:14:28.213 : :Глава 16
01:19:14.791 : :Глава 17
01:23:47.021 : :Глава 18
01:28:57.999 : :Глава 19
01:35:14.041 : :Глава 20
01:38:41.540 : :Глава 21
01:46:24.336 : :Глава 22
01:51:02.364 : :Глава 23
01:55:09.819 : :Глава 24
02:01:50.928 : :Глава 25
-- --
Сейчас вы смотрите Отель «Руанда» / Hotel Rwanda (2004) BDRip 1080p | P, A,не забываем оставлять комментарии!
Отель «Руанда» / Hotel Rwanda (2004) BDRip 1080p | P, A [mytorrnado.ru].t828.torrent 
 GOLD TORRENT! DOWNLOAD TRAFFIC DOES NOT CONSIDER! 
Torrent: Registered [ 2015-11-12 20:56 ] · 0BD08DCCB35CB7FD9782C0A26F0A790464E9620D Google it!

Download .torrent

23 KB

Status: checked
Completed: 38 times
Тип торрента: Публичный  - Seed: 1;  Leeh: 14    
Size: 8.67 GB
Поделиться:
FAQ:
 
Как качать?
Как качать?
X
Скачайте торрент и откройте его в своем клиенте
uTorrent

скачать программу,
дождитесь окончания загрузки.
Если торрент закрыт? Инстркуция.
* Как смотреть?
Как смотреть?
X

Для работы Magic Player
Вам необходимо установить
Ace Stream P2P Multimedia Plug-in

Установить

Для работы Magic Player Вам необходимо включить
Ace Stream P2P Multimedia Plug-in

Инструкция
terms.php
Похожие темы




Запрещено категорически:
» Развязывать разборки (для этого есть ЛС)
» Оставлять комментарии, не относящиеся к содержанию материала.
» Добавлять спам, рекламу флуд..
К спаму относится:
1. Реклама любого направления.
2. Ссылки на сторонние ресурсы рекламного характера.
3. Ссылки на ресурсы порнографического направления.
4. Сылки на блоги и им подбным контeнтам.
» Запрещено оскорбление администрации, модераторов и пользователей.
» Часто писать с вкл. Caps Lock
»За нарушение правил бан или отключение без объяснений.
Уважайте чужой труд!

Правила могут дополняться и изменяться. С уважением Администрация.
[Profile] [PM]
Display posts    
Reply to topic

Current time is: 05-Aug 22:57

All times are UTC + 5



You cannot post new topics in this forum
You cannot reply to topics in this forum
You cannot edit your posts in this forum
You cannot delete your posts in this forum
You cannot vote in polls in this forum
You cannot attach files in this forum
You can download files in this forum










!ATTENTION!
The site does not give electronic versions of products, and is engaged only in a collecting and cataloguing of the references sent and published at a forum by our readers. If you are the legal owner of any submitted material and do not wish that the reference to it was in our catalogue, contact us and we shall immediately remove her. Files for an exchange on tracker are given by users of a site, and the administration does not bear the responsibility for their maintenance. The request to not fill in the files protected by copyrights, and also files of the illegal maintenance!