Аладин / Aladin (2009) WEB-DLRip от ENGINEER

DL-List and Torrent activity [Update ]
Size:  2.18 GB   |    Registered:  5 years 8 months   |    Completed:  25 times
Seeders:  69  [  0 KB/s  ]   Leechers:  139  [  0 KB/s  ]  
 
     
 
 
Author Message

Иваныч ®

Gender: Male

Longevity: 5 years 8 months

Posts: 8203

Наличие запрета:


Карма  175 

Location: Россия,Курган



: 19 ()

Активный релизер  (2000 релизов) (1) Активный релизер  (250 и более релизов) (1) Помощь (1) Активный релизер  (150 релизов) (1)
Техпддержка (1) Активисту (1) За внесенный вклад в развитие сайта (1) От администрации (1)
Активный релизер (500 релизов) (1) Активный релизер  (3000 релизов) (1) Активный релизер  (50 релизов) (1) От администрации (1)

Post 12-Nov-2015 21:06

[Quote]

Аладин / Aladin (2009) WEB-DLRip
Релиз от: ENGINEER

Информация о фильме
Название: Аладин
Оригинальное название: Aladin
Год выхода: 2009
Жанр: Фэнтези, боевик, драма, мелодрама, комедия, приключения
Режиссер: Суджой Гхош / Sujoy Ghosh
В ролях: Шубханкар Атре, Амитабх Баччан, Виктор Банерджи, Дхавал Барбхая, Майкл Чен, Мастер Ахан Десаи, Ритеш Дешмукх, Санджай Датт, Эрина, Жаклин Фернандес, Ратна Патхак, Сахил Кхан
О фильме:
Аладин Чаттерджи, живущий в вымышленном городе Желание, сирота, которого с детства третирует Кассим и его банда. Но его жизнь меняется, когда Жасмин дает ему волшебную лампу — в ней живет джин по имени Гений. Джин, желая выполнить три желания и тем самым закончить «контракт» с лампой, создает Аладину трудности до тех пор, пока не появляется угроза со стороны бывшего джина по имени Инспектор манежа.

Страна: Индия
Студия: Baund Motion Piktures
Продолжительность: 02:12:52
Перевод: Русский профессиональный многоголосый (Амир)
Качество: WEB-DLRip
Файл : AVI
Кодек: XviD, build 65 codec
Видео: 720 x 304; 23.976 fps; 1963 kbps; 0.37 bit/pixel
Аудио: 48 kHz; 5.1 ch; 384.00 kbps; AC3 Dolby Digital
Размер: 2237.16 Mb (1/2 DVD5)

Скриншоты (превью - увеличение по клику):




MediaInfo :

Format : AVI
Format/Info : Audio Video Interleave
Format profile : OpenDML
File size : 2.18 GiB
Duration : 2h 12mn
Overall bit rate : 2 354 Kbps
Movie name : Аладин / Aladin (2009)
Director : MECHANICAL ENGINEER (WEB-DL 720p)
Genre : Фэнтези,комедия,приключения
Writing application : VirtualDubMod 1.5.10.3 | www.virtualdub-fr.org || (build 2550/release)
Original source form/Name : Home Video
Copyright : Индия
Comment : 12.11.2015
Video
ID : 0
Format : MPEG-4 Visual
Format profile : Advanced Simple@L5
Format settings, BVOP : 1
Format settings, QPel : No
Format settings, GMC : No warppoints
Format settings, Matrix : Custom
Codec ID : XVID
Codec ID/Hint : XviD
Duration : 2h 12mn
Bit rate : 1 958 Kbps
Width : 720 pixels
Height : 304 pixels
Display aspect ratio : 2.35:1
Frame rate : 23.976 fps
Color space : YUV
Chroma subsampling : 4:2:0
Bit depth : 8 bits
Scan type : Progressive
Compression mode : Lossy
Bits/(Pixel*Frame) : 0.373
Stream size : 1.82 GiB (83%)
Writing library : XviD 65
Audio
ID : 1
Format : AC-3
Format/Info : Audio Coding 3
Mode extension : CM (complete main)
Format settings, Endianness : Big
Codec ID : 2000
Duration : 2h 12mn
Bit rate mode : Constant
Bit rate : 384 Kbps
Channel(s) : 6 channels
Channel positions : Front: L C R, Side: L R, LFE
Sampling rate : 48.0 KHz
Bit depth : 16 bits
Compression mode : Lossy
Stream size : 365 MiB (16%)
Alignment : Split accross interleaves
Interleave, duration : 42 ms (1.00 video frame)
Interleave, preload duration : 500 ms
Автор рипа: MECHANICAL ENGINEER
Источник : WEB-DL 720рРелизы 1ENGINEER и Релизы MECHANICAL ENGINEER
ПРИЯТНОГО ПРОСМОТРА!
Сейчас вы смотрите Аладин / Aladin (2009) WEB-DLRip от ENGINEER,не забываем оставлять комментарии!
Аладин / Aladin (2009) WEB-DLRip от ENGINEER [mytorrnado.ru].t831.torrent 
Torrent: Registered [ 2015-11-12 21:06 ] · AFA58BD29B195A1229C77F035ADCA0C6DEB5C6E6 Google it!

Download .torrent

12 KB

Status: checked
Completed: 25 times
Тип торрента: Публичный  - Seed: 69;  Leeh: 139    
Size: 2.18 GB
Поделиться:
FAQ:
 
Как качать?
Как качать?
X
Скачайте торрент и откройте его в своем клиенте
uTorrent

скачать программу,
дождитесь окончания загрузки.
Если торрент закрыт? Инстркуция.
* Как смотреть?
Как смотреть?
X

Для работы Magic Player
Вам необходимо установить
Ace Stream P2P Multimedia Plug-in

Установить

Для работы Magic Player Вам необходимо включить
Ace Stream P2P Multimedia Plug-in

Инструкция
terms.php
Похожие темы




Запрещено категорически:
» Развязывать разборки (для этого есть ЛС)
» Оставлять комментарии, не относящиеся к содержанию материала.
» Добавлять спам, рекламу флуд..
К спаму относится:
1. Реклама любого направления.
2. Ссылки на сторонние ресурсы рекламного характера.
3. Ссылки на ресурсы порнографического направления.
4. Сылки на блоги и им подбным контeнтам.
» Запрещено оскорбление администрации, модераторов и пользователей.
» Часто писать с вкл. Caps Lock
»За нарушение правил бан или отключение без объяснений.
Уважайте чужой труд!

Правила могут дополняться и изменяться. С уважением Администрация.
[Profile] [PM]
Display posts    
Reply to topic

Current time is: 24-Jul 17:13

All times are UTC + 5



You cannot post new topics in this forum
You cannot reply to topics in this forum
You cannot edit your posts in this forum
You cannot delete your posts in this forum
You cannot vote in polls in this forum
You cannot attach files in this forum
You can download files in this forum










!ATTENTION!
The site does not give electronic versions of products, and is engaged only in a collecting and cataloguing of the references sent and published at a forum by our readers. If you are the legal owner of any submitted material and do not wish that the reference to it was in our catalogue, contact us and we shall immediately remove her. Files for an exchange on tracker are given by users of a site, and the administration does not bear the responsibility for their maintenance. The request to not fill in the files protected by copyrights, and also files of the illegal maintenance!