Сумасшедший / Невменяемые / Deranged / Yeon-ga-si [2012]

DL-List and Torrent activity [Update ]
Size:  1.37 GB   |    Registered:  5 years 8 months   |    Completed:  47 times

Seeder not seen: Never

 
     
 
 
 
Author Message

Иваныч ®

Gender: Male

Longevity: 5 years 8 months

Posts: 8217

Наличие запрета:


Карма  175 

Location: Россия,Курган



: 19 ()

Активный релизер  (3000 релизов) (1) Активный релизер  (50 релизов) (1) Активный релизер  (100 релизов) (1) Активный релизер (500 релизов) (1)
Техпддержка (1) Активный релизер  (250 и более релизов) (1) Активный релизер  (2000 релизов) (1) Активный релизер  (200 релизов) (1)
Активисту (1) Реализация решений (1) Активному релизеру (5000 раздач) (1) Дизайн (1)

Post 13-Nov-2015 11:40

[Quote]

Невменяемые / Deranged
Страна: Южная Корея
Жанр: драма, триллер
Год выпуска: 2012
Продолжительность: 01:49:08
-
Перевод: одноголосый закадровый den904
Перевод на русский: den904
Cубтитры: нет
Режиссер: Пак Чону / Park Jeong-woo
В ролях: Ким Мёнмин, Мун Чонхи, Ким Донван, Кан Синиль, Чон Инги
-
Описание: Всё начинается с того, что несколько людей в форме, пытаются захоронить зараженных собак в реке. Через некоторое время заражение распространяется через воду...
-
РЕЛИЗ ГРУПП:
-
-Качество видео: HDRip (исходник неизвестен)
Формат видео: AVI
Видео: DivX, 720x304 (2.37:1), 23.976 fps, 1593 kbps avg, 0.30 bit/pixel
Аудио: Русский, 48 KHz, MPEG Layer 3, 2 ch, 192 kbps-

MediaInfo

Format : AVI
Format/Info : Audio Video Interleave
File size : 1.37 GiB
Duration : 1h 49mn
Overall bit rate : 1 795 Kbps
Writing application : VirtualDubMod 1.5.10.2 (build 2540/release)
Writing library : VirtualDubMod build 2540/release
Video
ID : 0
Format : MPEG-4 Visual
Format settings, BVOP : No
Format settings, QPel : No
Format settings, GMC : No warppoints
Format settings, Matrix : Default (H.263)
Codec ID : DX50
Codec ID/Hint : DivX 5
Duration : 1h 49mn
Bit rate : 1 594 Kbps
Width : 720 pixels
Height : 304 pixels
Display aspect ratio : 2.35:1
Frame rate : 23.976 fps
Color space : YUV
Chroma subsampling : 4:2:0
Bit depth : 8 bits
Scan type : Progressive
Compression mode : Lossy
Bits/(Pixel*Frame) : 0.304
Stream size : 1.22 GiB (89%)
Writing library : DivX 5.1.1 (Maupiti) (UTC 2003-11-19)
Audio
ID : 1
Format : MPEG Audio
Format version : Version 1
Format profile : Layer 3
Mode : Joint stereo
Codec ID : 55
Codec ID/Hint : MP3
Duration : 1h 49mn
Bit rate mode : Constant
Bit rate : 192 Kbps
Channel(s) : 2 channels
Sampling rate : 48.0 KHz
Compression mode : Lossy
Stream size : 150 MiB (11%)
Alignment : Aligned on interleaves
Interleave, duration : 42 ms (1.00 video frame)
Interleave, preload duration : 504 ms

Скриншот c названием фильма

Скриншоты






Сейчас вы смотрите Сумасшедший / Невменяемые / Deranged / Yeon-ga-si [2012],не забываем оставлять комментарии!
Сумасшедший / Невменяемые / Deranged / Yeon-ga-si [2012] [mytorrnado.ru].t843.torrent 
Torrent: Registered [ 2015-11-13 11:40 ] · 3131C4586B8CD8F05B56E2EB96665D309D66261E Google it!

Download .torrent

14 KB

Status: checked
Completed: 47 times
Тип торрента:    
Size: 1.37 GB
Поделиться:
FAQ:
 
Как качать?
Как качать?
X
Скачайте торрент и откройте его в своем клиенте
uTorrent

скачать программу,
дождитесь окончания загрузки.
Если торрент закрыт? Инстркуция.
* Как смотреть?
Как смотреть?
X

Для работы Magic Player
Вам необходимо установить
Ace Stream P2P Multimedia Plug-in

Установить

Для работы Magic Player Вам необходимо включить
Ace Stream P2P Multimedia Plug-in

Инструкция
terms.php
Похожие темы




Запрещено категорически:
» Развязывать разборки (для этого есть ЛС)
» Оставлять комментарии, не относящиеся к содержанию материала.
» Добавлять спам, рекламу флуд..
К спаму относится:
1. Реклама любого направления.
2. Ссылки на сторонние ресурсы рекламного характера.
3. Ссылки на ресурсы порнографического направления.
4. Сылки на блоги и им подбным контeнтам.
» Запрещено оскорбление администрации, модераторов и пользователей.
» Часто писать с вкл. Caps Lock
»За нарушение правил бан или отключение без объяснений.
Уважайте чужой труд!

Правила могут дополняться и изменяться. С уважением Администрация.
[Profile] [PM]
Display posts    
Reply to topic

Current time is: 29-Jul 17:09

All times are UTC + 5



You cannot post new topics in this forum
You cannot reply to topics in this forum
You cannot edit your posts in this forum
You cannot delete your posts in this forum
You cannot vote in polls in this forum
You cannot attach files in this forum
You can download files in this forum










!ATTENTION!
The site does not give electronic versions of products, and is engaged only in a collecting and cataloguing of the references sent and published at a forum by our readers. If you are the legal owner of any submitted material and do not wish that the reference to it was in our catalogue, contact us and we shall immediately remove her. Files for an exchange on tracker are given by users of a site, and the administration does not bear the responsibility for their maintenance. The request to not fill in the files protected by copyrights, and also files of the illegal maintenance!