Привидение / Призрак / Ghost (1990) BDRip-AVC от 0ptimus | P, A

DL-List and Torrent activity [Update ]
Size:  4.01 GB   |    Registered:  5 years 8 months   |    Completed:  25 times
Seeders:  1  [  0 KB/s  ]   Leechers:  8  [  0 KB/s  ]  
 
     
 
 
 
Author Message

Иваныч ®

Gender: Male

Longevity: 5 years 8 months

Posts: 8203

Наличие запрета:


Карма  175 

Location: Россия,Курган



: 19 ()

Помощь (1) Активный релизер  (1000 релизов) (1) Активный релизер  (150 релизов) (1) От администрации (1)
Активный релизер  (250 и более релизов) (1) Активный релизер (500 релизов) (1) За внесенный вклад в развитие сайта (1) Активный релизер  (3000 релизов) (1)
Активный релизер  (200 релизов) (1) Активный релизер  (50 релизов) (1) Активисту (1) Активному релизеру (5000 раздач) (1)

Post 14-Nov-2015 15:16

[Quote]

Привидение / Призрак | Ghost
Информация о фильме
Название: Призрак / Привидение
Оригинальное название: Ghost
Год выхода: 1990
Жанр: триллер, фэнтези, мелодрама, драма, детектив
Режиссер: Джерри Цукер
В ролях: Патрик Суэйзи, Деми Мур, Вупи Голдберг, Тони Голдуин, Рик Авилес, Винсент Скьявелли, Армелия МакКуин, Сьюзен Бресло, Брюс Джарчоу, Рик Клебер, Кристофер Дж. Кин, Мартина Дэйнан, Мака Фоули, Стэнли Лоуренс, Фил Лидс, Анджелина Эстрада, Гэйл Боггс, Том Керли, Стивен Рут, Лаура Дрэйк, Оджи Блант, Альма Белтран, Вивьен Боннель, Дж. Кристофер Салливан, Шарлотта Зукер, Том Финнегэн, Уильям Корт, Минни Саммерс Линдси, Саид Фарай, Дерек Томпсон, Майк Джиттлов, Джон Хью
О фильме:
Призраки – это люди, которые "ушли" внезапно,.. раньше, чем были готовы. Все это осознал Сэм, когда "не понял", почему его любимая внезапно перестала его видеть и слышать. Что же с ним произошло, и главное, что еще произойдет, прежде чем он поймет еще кое-что – что любовь не умирает, а справедливость существует, так же как оказывается существует и человек, способный слышать даже "таких, как он"?

Страна: США
Студия: Paramount Pictures
Продолжительность: 02:06:39
Перевод: Профессиональный многоголосый, авторский
Файл
Кодек: h.264
Качество: BDRip-AVC
Видео: 1839 Кбит/с, 1024х576, 23.976 кадр/с
Звук:
• №1: Русский (АС3, 6 ch, 384 Кбит/с) Профессиональный многоголосый [Universal Pictures Rus]
• №2: Русский (АС3, 2 ch, 192 Кбит/с) Профессиональный многоголосый [ОРТ]
• №3: Русский (АС3, 6 ch, 384 Кбит/с) Авторский [Алексей Михалев]
• №4: Английский (АС3, 6 ch, 384 Кбит/с)
Отдельно:
• №5: Русский (АС3, 6 ch, 384 Кбит/с) Профессиональный многоголосый [Карусель]
• №6: Русский (АС3, 6 ch, 384 Кбит/с) Профессиональный многоголосый [Киномания]
• №7: Русский (АС3, 2 ch, 192 Кбит/с) Профессиональный многоголосый [Премьер Видео Фильм]
• №8: Русский (АС3, 2 ch, 192 Кбит/с) Профессиональный многоголосый [СТС]
• №9: Русский (АС3, 2 ch, 192 Кбит/с) Профессиональный многоголосый [Россия]
• №10: Украинский (АС3, 6 ch, 384 Кбит/с) Профессиональный многоголосый [Новый канал] —> скачать
Субтитры: Русские, английские

MediaInfo

---------------------------------------------------------------------------------------
x264 [info]: frame I:1246 Avg QP:16.87 size: 81701
x264 [info]: frame P:37326 Avg QP:19.64 size: 30448
x264 [info]: frame B:143630 Avg QP:21.51 size: 10633
x264 [info]: consecutive B-frames: 1.7% 2.2% 5.7% 15.7% 19.5% 40.4% 7.9% 3.4% 1.6% 0.8% 0.3% 0.4% 0.4%
---------------------------------------------------------------------------------------
Полное имя : Ghost.1990.x264.BDRip-AVC.0ptimus.mkv
Формат : Matroska
Версия формата : Version 2
Размер файла : 2,82 Гбайт
Продолжительность : 2 ч. 6 м.
Общий поток : 3186 Кбит/сек
Название фильма : Призрак | Привидение) | Ghost [1990] -= BDRip (AVC) by 0ptimus =-
Дата кодирования : UTC 2014-05-09 13:24:15
Программа кодирования : mkvmerge v6.6.0 ('The Edge Of The In Between') built on Dec 1 2013 17:55:00
Библиотека кодирования : libebml v1.3.0 + libmatroska v1.4.1
Видео
Идентификатор : 1
Формат : AVC
Формат/Информация : Advanced Video Codec
Профиль формата : High@L4.1
Параметр CABAC формата : Да
Параметр ReFrames формата : 9 кадров
Идентификатор кодека : V_MPEG4/ISO/AVC
Продолжительность : 2 ч. 6 м.
Битрейт : 1839 Кбит/сек
Ширина : 1024 пикселя
Высота : 576 пикселей
Соотношение сторон : 16:9
Режим частоты кадров : Постоянный
Частота кадров : 23,976 кадра/сек
Цветовое пространство : YUV
Субдискретизация насыщенности : 4:2:0
Битовая глубина : 8 бит
Тип развёртки : Прогрессивная
Бит/(Пиксели*Кадры) : 0.130
Размер потока : 1,57 Гбайт (56%)
Заголовок : Rip by 0ptimus
Библиотека кодирования : x264 core 133 r2334 a3ac64b
Настройки программы : cabac=1 / ref=9 / deblock=1:-3:-2 / analyse=0x3:0x113 / me=umh / subme=11 / psy=1 / psy_rd=1.00:0.20 / mixed_ref=1 / me_range=32 / chroma_me=1 / trellis=2 / 8x8dct=1 / cqm=0 / deadzone=21,11 / fast_pskip=0 / chroma_qp_offset=-3 / threads=4 / lookahead_threads=1 / sliced_threads=0 / nr=0 / decimate=0 / interlaced=0 / bluray_compat=0 / constrained_intra=0 / bframes=11 / b_pyramid=2 / b_adapt=2 / b_bias=0 / direct=3 / weightb=1 / open_gop=0 / weightp=2 / keyint=240 / keyint_min=23 / scenecut=40 / intra_refresh=0 / rc_lookahead=40 / rc=2pass / mbtree=0 / bitrate=1839 / ratetol=1.0 / qcomp=0.60 / qpmin=0 / qpmax=69 / qpstep=4 / cplxblur=20.0 / qblur=0.5 / vbv_maxrate=50000 / vbv_bufsize=50000 / nal_hrd=none / ip_ratio=1.40 / pb_ratio=1.30 / aq=1:1.00
Язык : English
Default : Да
Forced : Да
Аудио #1
Идентификатор : 2
Формат : AC-3
Формат/Информация : Audio Coding 3
Расширение режима : CM (complete main)
Параметр Endianness формата : Big
Идентификатор кодека : A_AC3
Продолжительность : 2 ч. 6 м.
Вид битрейта : Постоянный
Битрейт : 384 Кбит/сек
Каналы : 6 каналов
Расположение каналов : Front: L C R, Side: L R, LFE
Частота : 48,0 КГц
Битовая глубина : 16 бит
Метод сжатия : С потерями
Размер потока : 348 Мбайт (12%)
Заголовок : Многоголосый [Universal Pictures Rus] AC3 5.1 @ 384 kbps
Язык : Russian
Default : Да
Forced : Да
Аудио #2
Идентификатор : 3
Формат : AC-3
Формат/Информация : Audio Coding 3
Расширение режима : CM (complete main)
Параметр Endianness формата : Big
Идентификатор кодека : A_AC3
Продолжительность : 2 ч. 6 м.
Вид битрейта : Постоянный
Битрейт : 192 Кбит/сек
Каналы : 2 канала
Расположение каналов : Front: L R
Частота : 48,0 КГц
Битовая глубина : 16 бит
Метод сжатия : С потерями
Размер потока : 174 Мбайт (6%)
Заголовок : Многоголосый [ОРТ] AC3 2.0 @ 192 kbps
Язык : Russian
Default : Нет
Forced : Нет
Аудио #3
Идентификатор : 4
Формат : AC-3
Формат/Информация : Audio Coding 3
Расширение режима : CM (complete main)
Параметр Endianness формата : Big
Идентификатор кодека : A_AC3
Продолжительность : 2 ч. 6 м.
Вид битрейта : Постоянный
Битрейт : 384 Кбит/сек
Каналы : 6 каналов
Расположение каналов : Front: L C R, Side: L R, LFE
Частота : 48,0 КГц
Битовая глубина : 16 бит
Метод сжатия : С потерями
Размер потока : 348 Мбайт (12%)
Заголовок : Авторский [Алексей Михалев] AC3 5.1 @ 384 kbps
Язык : Russian
Default : Нет
Forced : Нет
Аудио #4
Идентификатор : 5
Формат : AC-3
Формат/Информация : Audio Coding 3
Расширение режима : CM (complete main)
Параметр Endianness формата : Big
Идентификатор кодека : A_AC3
Продолжительность : 2 ч. 6 м.
Вид битрейта : Постоянный
Битрейт : 384 Кбит/сек
Каналы : 6 каналов
Расположение каналов : Front: L C R, Side: L R, LFE
Частота : 48,0 КГц
Битовая глубина : 16 бит
Метод сжатия : С потерями
Размер потока : 348 Мбайт (12%)
Заголовок : AC3 5.1 @ 384 kbps
Язык : English
Default : Нет
Forced : Нет
Текст #1
Идентификатор : 6
Формат : UTF-8
Идентификатор кодека : S_TEXT/UTF8
Идентификатор кодека/Информация : UTF-8 Plain Text
Заголовок : BD CEE
Язык : Russian
Default : Нет
Forced : Нет
Текст #2
Идентификатор : 7
Формат : UTF-8
Идентификатор кодека : S_TEXT/UTF8
Идентификатор кодека/Информация : UTF-8 Plain Text
Заголовок : По переводу Михалева
Язык : Russian
Default : Нет
Forced : Нет
Текст #3
Идентификатор : 8
Формат : UTF-8
Идентификатор кодека : S_TEXT/UTF8
Идентификатор кодека/Информация : UTF-8 Plain Text
Заголовок : BD CEE
Язык : Ukrainian
Default : Нет
Forced : Нет
Текст #4
Идентификатор : 9
Формат : UTF-8
Идентификатор кодека : S_TEXT/UTF8
Идентификатор кодека/Информация : UTF-8 Plain Text
Язык : English
Default : Нет
Forced : Нет
Текст #5
Идентификатор : 10
Формат : UTF-8
Идентификатор кодека : S_TEXT/UTF8
Идентификатор кодека/Информация : UTF-8 Plain Text
Заголовок : SDH
Язык : English
Default : Нет
Forced : Нет
Меню
00:00:00.000 : en:Opening Credits
00:11:08.251 : en:Unchained Melody
00:17:18.037 : en:Afterlife
00:32:06.591 : en:Willie Lopez
00:37:42.760 : en:Oda Mae Brown
00:47:04.530 : en:Molly in Danger
01:12:23.756 : en:The Art of Being a Ghost
01:18:02.511 : en:A Gathering of Ghosts
01:22:16.807 : en:Rita Miller
01:34:30.957 : en:Murderer!!
01:38:54.095 : en:Spooked
01:44:26.677 : en:Convincing Molly
01:49:09.501 : en:Oda Mae Brown Possessed
01:52:13.936 : en:Carl
01:57:40.387 : en:Believe...
02:02:15.328 : en:End Credits

Скриншоты



Релиз от:
Сейчас вы смотрите Привидение / Призрак / Ghost (1990) BDRip-AVC от 0ptimus | P, A,не забываем оставлять комментарии!
Привидение / Призрак / Ghost (1990) BDRip-AVC от 0ptimus | P, A [mytorrnado.ru].t927.torrent 
Torrent: Registered [ 2015-11-14 15:16 ] · 501AFC6343BF583EDDF159A353240994F71509A6 Google it!

Download .torrent

22 KB

Status: checked
Completed: 25 times
Тип торрента: Публичный  - Seed: 1;  Leeh: 8    
Size: 4.01 GB
Поделиться:
FAQ:
 
Как качать?
Как качать?
X
Скачайте торрент и откройте его в своем клиенте
uTorrent

скачать программу,
дождитесь окончания загрузки.
Если торрент закрыт? Инстркуция.
* Как смотреть?
Как смотреть?
X

Для работы Magic Player
Вам необходимо установить
Ace Stream P2P Multimedia Plug-in

Установить

Для работы Magic Player Вам необходимо включить
Ace Stream P2P Multimedia Plug-in

Инструкция
terms.php
Похожие темы




Запрещено категорически:
» Развязывать разборки (для этого есть ЛС)
» Оставлять комментарии, не относящиеся к содержанию материала.
» Добавлять спам, рекламу флуд..
К спаму относится:
1. Реклама любого направления.
2. Ссылки на сторонние ресурсы рекламного характера.
3. Ссылки на ресурсы порнографического направления.
4. Сылки на блоги и им подбным контeнтам.
» Запрещено оскорбление администрации, модераторов и пользователей.
» Часто писать с вкл. Caps Lock
»За нарушение правил бан или отключение без объяснений.
Уважайте чужой труд!

Правила могут дополняться и изменяться. С уважением Администрация.
[Profile] [PM]
Display posts    
Reply to topic

Current time is: 24-Jul 16:21

All times are UTC + 5



You cannot post new topics in this forum
You cannot reply to topics in this forum
You cannot edit your posts in this forum
You cannot delete your posts in this forum
You cannot vote in polls in this forum
You cannot attach files in this forum
You can download files in this forum










!ATTENTION!
The site does not give electronic versions of products, and is engaged only in a collecting and cataloguing of the references sent and published at a forum by our readers. If you are the legal owner of any submitted material and do not wish that the reference to it was in our catalogue, contact us and we shall immediately remove her. Files for an exchange on tracker are given by users of a site, and the administration does not bear the responsibility for their maintenance. The request to not fill in the files protected by copyrights, and also files of the illegal maintenance!