Случайный шпион / Dak miu mai shing (2001) BDRip 720р от SuperMin | P

DL-List and Torrent activity [Update ]
Size:  3.38 GB   |    Registered:  5 years 9 months   |    Completed:  46 times
Seeders:  16  [  0 KB/s  ]   Leechers:  21  [  0 KB/s  ]  
 
     
 
 
Author Message

Иваныч ®

Gender: Male

Longevity: 5 years 9 months

Posts: 8246

Наличие запрета:


Карма  175 

Location: Россия,Курган



: 19 ()

Активный релизер  (3000 релизов) (1) Реализация решений (1) Активный релизер  (250 и более релизов) (1) Активный релизер  (150 релизов) (1)
Активисту (1) Техпддержка (1) Активный релизер  (1000 релизов) (1) Помощь (1)
За внесенный вклад в развитие сайта (1) Дизайн (1) Активный релизер (500 релизов) (1) Активный релизер  (50 релизов) (1)

Post 04-Nov-2015 00:04

[Quote]


Информация о фильме
Название: Случайный шпион
Оригинальное название: Dak miu mai shing
Жанр: боевик, комедия
Режиссер: Тедди Чан
В ролях: Джеки Чан, Эрик Цан, Вивиан Су, Мин Ким, Син-Куо У, Альфред Чун, Энтони Рене Джонс, Глори Саймон, Брэдли Джеймс Аллан, Тат-Минг Чунг
О фильме:
Джеки Чан играет сироту Бака, который всегда мечтал стать спецагентом. С детства изучал боевые искусства. Однажды помог полиции в задержании грабителей банка. Бак постоянно сталкивается с подозрительными фактами о прошлой жизни своего отца, который по словам частного детектива Лиу является миллионером. Детектив убедил Бака отправиться на встречу с «отцом» в Турцию, а затем Корею. Бак и не догадывается, что его отец фактически оказывается северо-корейским шпионом.
Таким образом сирота становится адресатом для посещений его рядом таинственных людей. Он даже не предполагал, что окажется запутанным в деле с воровством вируса, вызывающего рак легких, из американского правительственного научного департамента. И теперь ему придется использовать все свое умение и храбрость, чтобы остановить вирус от попадания не в те руки.

Страна: Гонконг
Продолжительность: 01:47:35
Перевод: Профессиональный (многоголосый закадровый)
Файл
Кодек: H.264
Качество: BDRip 720р от SuperMin
Видео: 1280х544 (2.35:1), 4214 Kbps, 24.000 fps
Звук: Русский (AC-3, 2ch, 192 kbps)
Субтитры: Русские

MI

Video
ID : 2
Format : AVC
Format/Info : Advanced Video Codec
Format profile : High@L4
Format settings, CABAC : Yes
Format settings, ReFrames : 8 frames
Codec ID : V_MPEG4/ISO/AVC
Duration : 1h 47mn
Bit rate : 4 214 Kbps
Width : 1 280 pixels
Height : 544 pixels
Display aspect ratio : 2.35:1
Frame rate mode : Constant
Frame rate : 24.000 fps
Color space : YUV
Chroma subsampling : 4:2:0
Bit depth : 8 bits
Scan type : Progressive
Bits/(Pixel*Frame) : 0.252
Stream size : 3.17 GiB (94%)
Title : 1920x1080p / 24 fps / 16:9 / High Profile 4.1, H.264, ~24576 kbps
Default : Yes
Forced : No
Audio
ID : 1
Format : AC-3
Format/Info : Audio Coding 3
Mode extension : CM (complete main)
Format settings, Endianness : Big
Codec ID : A_AC3
Duration : 1h 47mn
Bit rate mode : Constant
Bit rate : 192 Kbps
Channel(s) : 2 channels
Channel positions : Front: L R
Sampling rate : 48.0 KHz
Bit depth : 32 bits
Compression mode : Lossy
Stream size : 148 MiB (4%)
Title : Dolby Digital Audio 2.0 / 48 kHz / 192 kbps (MVO)
Language : Russian
Default : Yes
Forced : No

Скриншоты

Скриншот исходника

Сейчас вы смотрите Случайный шпион / Dak miu mai shing (2001) BDRip 720р от SuperMin | P,не забываем оставлять комментарии!
Случайный шпион / Dak miu mai shing (2001) BDRip 720р от SuperMin | P [mytorrnado.ru].t93.torrent 
Torrent: Registered [ 2015-11-04 00:04 ] · 81A693F7871D16F672FE70CF24F98F13472BACC4 Google it!

Download .torrent

18 KB

Status: checked
Completed: 46 times
Тип торрента: Публичный  - Seed: 16;  Leeh: 21    
Size: 3.38 GB
Поделиться:
FAQ:
 
Как качать?
Как качать?
X
Скачайте торрент и откройте его в своем клиенте
uTorrent

скачать программу,
дождитесь окончания загрузки.
Если торрент закрыт? Инстркуция.
* Как смотреть?
Как смотреть?
X

Для работы Magic Player
Вам необходимо установить
Ace Stream P2P Multimedia Plug-in

Установить

Для работы Magic Player Вам необходимо включить
Ace Stream P2P Multimedia Plug-in

Инструкция
terms.php
Похожие темы




Запрещено категорически:
» Развязывать разборки (для этого есть ЛС)
» Оставлять комментарии, не относящиеся к содержанию материала.
» Добавлять спам, рекламу флуд..
К спаму относится:
1. Реклама любого направления.
2. Ссылки на сторонние ресурсы рекламного характера.
3. Ссылки на ресурсы порнографического направления.
4. Сылки на блоги и им подбным контeнтам.
» Запрещено оскорбление администрации, модераторов и пользователей.
» Часто писать с вкл. Caps Lock
»За нарушение правил бан или отключение без объяснений.
Уважайте чужой труд!

Правила могут дополняться и изменяться. С уважением Администрация.
[Profile] [PM]
Display posts    
Reply to topic

Current time is: 05-Aug 22:39

All times are UTC + 5



You cannot post new topics in this forum
You cannot reply to topics in this forum
You cannot edit your posts in this forum
You cannot delete your posts in this forum
You cannot vote in polls in this forum
You cannot attach files in this forum
You can download files in this forum










!ATTENTION!
The site does not give electronic versions of products, and is engaged only in a collecting and cataloguing of the references sent and published at a forum by our readers. If you are the legal owner of any submitted material and do not wish that the reference to it was in our catalogue, contact us and we shall immediately remove her. Files for an exchange on tracker are given by users of a site, and the administration does not bear the responsibility for their maintenance. The request to not fill in the files protected by copyrights, and also files of the illegal maintenance!