Адмирал / Michiel de Ruyter (2015) BDRip 1080p от NNNB | A

DL-List and Torrent activity [Update ]
Size:  11.55 GB   |    Registered:  5 years 8 months   |    Completed:  29 times

Seeder not seen: Never

Leechers:  14  [  0 KB/s  ]  
 
     
 
 
 
Author Message

Иваныч ®

Gender: Male

Longevity: 5 years 8 months

Posts: 8203

Наличие запрета:


Карма  175 

Location: Россия,Курган



: 19 ()

Активный релизер  (2000 релизов) (1) Активный релизер  (50 релизов) (1) Активный релизер  (200 релизов) (1) Активный релизер  (100 релизов) (1)
Активисту (1) Активному релизеру (5000 раздач) (1) Дизайн (1) Активный релизер (500 релизов) (1)
От администрации (1) От администрации (1) За внесенный вклад в развитие сайта (1) Активный релизер  (250 и более релизов) (1)

Post 15-Nov-2015 15:43

[Quote]

Адмирал / Michiel de Ruyter
Русское название: Адмирал
Оригинальное название: Michiel de Ruyter
Год выпуска: 2015
Жанр: боевик, драма, приключения, биография, история
Выпущено: Нидерланды
Режиссер: Роэль Рейн
В ролях: Франк Ламерс , Sanne Langelaar , Барри Атсма , Lieke van Lexmond , Рёланд Фернхут , Эгберт Ян Вебер , Тиго Гернандт , Дерек де Линт , Хайо Брюинс , Жуль Кройсет , Pip Pellens , Виктор Лёв
Перевод: Авторский (одноголосый, Ю.Сербин)
Сюжет фильма:
Михил Рюйтер был одним из самых главных новаторов в боевой технике. Он стал героем голландского флота.
В то время как Голландию, находившуюся на грани гражданской войны, атаковали со всех сторон, лишь один человек пытался бороться за интересы страны - Михаил Рюйтер. Но в глазах власть имущих его успехи делали его слишком популярным, и Рюйтера отправили на смертельно опасное задание...

Качество: BDRip 1080p
Формат: AVC (библиотека кодирования x.264)
Контейнер (Расширение): MKV
Видео: 1920x806, 9601 Кбит/сек, 24 кадр/сек, 0,259 Бит/[Пиксели*Кадры]
Аудио №1: русский / AC3 / 5.1 / 48 kHz / 640 kbps / |Авторский (одноголосый, Ю.Сербин)|
Аудио №2: Dutch / AC3 / 5.1 / 48 kHz / 640 kbps /
Субтитры: русские, английские
Навигация по главам(Чаптеры): есть
Продолжительность: 02:31:54
Автор рипа: Сообщество:

MediaInfo

Format : Matroska
Format version : Version 2
File size : 11.5 GiB
Duration : 2h 31mn
Overall bit rate : 10.9 Mbps
Movie name : Admiral.(2015).BDRip.1080p.[denis100]
Encoded date : UTC 2015-11-15 09:59:38
Writing application : mkvmerge v5.8.0 ('No Sleep / Pillow') built on Sep 2 2012 15:37:04
Writing library : libebml v1.2.3 + libmatroska v1.3.0
Video
ID : 1
Format : AVC
Format/Info : Advanced Video Codec
Format profile : High@L4.1
Format settings, CABAC : Yes
Format settings, ReFrames : 5 frames
Codec ID : V_MPEG4/ISO/AVC
Duration : 2h 31mn
Bit rate : 9 601 Kbps
Width : 1 920 pixels
Height : 806 pixels
Display aspect ratio : 2.40:1
Frame rate : 24.000 fps
Color space : YUV
Chroma subsampling : 4:2:0
Bit depth : 8 bits
Scan type : Progressive
Bits/(Pixel*Frame) : 0.259
Stream size : 9.96 GiB (86%)
Title : Admiral.(2015).BDRip.1080p.[denis100].NNNB
Writing library : x264 core 148 r2597 e86f3a1
Encoding settings : cabac=1 / ref=5 / deblock=1:-3:-3 / analyse=0x3:0x133 / me=umh / subme=11 / psy=1 / psy_rd=1.00:0.05 / mixed_ref=1 / me_range=32 / chroma_me=1 / trellis=2 / 8x8dct=1 / cqm=0 / deadzone=21,11 / fast_pskip=0 / chroma_qp_offset=-3 / threads=6 / lookahead_threads=1 / sliced_threads=0 / nr=0 / decimate=1 / interlaced=0 / bluray_compat=0 / constrained_intra=0 / bframes=8 / b_pyramid=2 / b_adapt=2 / b_bias=0 / direct=3 / weightb=1 / open_gop=0 / weightp=2 / keyint=250 / keyint_min=24 / scenecut=40 / intra_refresh=0 / rc=2pass / mbtree=0 / bitrate=9601 / ratetol=1.0 / qcomp=0.60 / qpmin=0 / qpmax=69 / qpstep=4 / cplxblur=20.0 / qblur=0.5 / ip_ratio=1.40 / pb_ratio=1.30 / aq=1:1.00
Language : English
Default : Yes
Forced : No
Audio #1
ID : 2
Format : AC-3
Format/Info : Audio Coding 3
Mode extension : CM (complete main)
Codec ID : A_AC3
Duration : 2h 31mn
Bit rate mode : Constant
Bit rate : 640 Kbps
Channel(s) : 6 channels
Channel positions : Front: L C R, Side: L R, LFE
Sampling rate : 48.0 KHz
Bit depth : 16 bits
Compression mode : Lossy
Stream size : 695 MiB (6%)
Title : Авторский, Ю.Сербин
Language : Russian
Default : Yes
Forced : No
Audio #2
ID : 3
Format : AC-3
Format/Info : Audio Coding 3
Mode extension : CM (complete main)
Codec ID : A_AC3
Duration : 2h 31mn
Bit rate mode : Constant
Bit rate : 640 Kbps
Channel(s) : 6 channels
Channel positions : Front: L C R, Side: L R, LFE
Sampling rate : 48.0 KHz
Bit depth : 16 bits
Compression mode : Lossy
Stream size : 695 MiB (6%)
Language : Dutch
Default : No
Forced : No
Text #1
ID : 4
Format : UTF-8
Codec ID : S_TEXT/UTF8
Codec ID/Info : UTF-8 Plain Text
Language : Russian
Default : No
Forced : No
Text #2
ID : 5
Format : UTF-8
Codec ID : S_TEXT/UTF8
Codec ID/Info : UTF-8 Plain Text
Language : English
Default : No
Forced : No
Menu
00:00:00.000 : en:00:00:00.000
00:15:20.707 : en:00:15:20.707
00:32:30.875 : en:00:32:30.875
00:49:20.875 : en:00:49:20.875
00:59:50.666 : en:00:59:50.666
01:19:50.416 : en:01:19:50.416
01:39:18.791 : en:01:39:18.791
01:55:04.666 : en:01:55:04.666
02:10:07.500 : en:02:10:07.500

x264

x264 [info]: frame I:1665 Avg QP:11.75 size:189809
x264 [info]: frame P:67840 Avg QP:14.33 size: 81346
x264 [info]: frame B:149248 Avg QP:16.48 size: 34178
x264 [info]: consecutive B-frames: 7.3% 8.0% 23.5% 24.7% 13.8% 21.0% 1.0% 0.3% 0.4%

Скриншоты

Сейчас вы смотрите Адмирал / Michiel de Ruyter (2015) BDRip 1080p от NNNB | A,не забываем оставлять комментарии!
Адмирал / Michiel de Ruyter (2015) BDRip 1080p от NNNB | A [mytorrnado.ru].t978.torrent 
 GOLD TORRENT! DOWNLOAD TRAFFIC DOES NOT CONSIDER! 
Torrent: Registered [ 2015-11-15 15:43 ] · D41D831DF71463DC57A63DE5484570D552F3CC84 Google it!

Download .torrent

58 KB

Status: checked
Completed: 29 times
Тип торрента:  Leeh: 14    
Size: 11.55 GB
Поделиться:
FAQ:
 
Как качать?
Как качать?
X
Скачайте торрент и откройте его в своем клиенте
uTorrent

скачать программу,
дождитесь окончания загрузки.
Если торрент закрыт? Инстркуция.
* Как смотреть?
Как смотреть?
X

Для работы Magic Player
Вам необходимо установить
Ace Stream P2P Multimedia Plug-in

Установить

Для работы Magic Player Вам необходимо включить
Ace Stream P2P Multimedia Plug-in

Инструкция
terms.php
Похожие темы




Запрещено категорически:
» Развязывать разборки (для этого есть ЛС)
» Оставлять комментарии, не относящиеся к содержанию материала.
» Добавлять спам, рекламу флуд..
К спаму относится:
1. Реклама любого направления.
2. Ссылки на сторонние ресурсы рекламного характера.
3. Ссылки на ресурсы порнографического направления.
4. Сылки на блоги и им подбным контeнтам.
» Запрещено оскорбление администрации, модераторов и пользователей.
» Часто писать с вкл. Caps Lock
»За нарушение правил бан или отключение без объяснений.
Уважайте чужой труд!

Правила могут дополняться и изменяться. С уважением Администрация.
[Profile] [PM]
Display posts    
Reply to topic

Current time is: 24-Jul 17:10

All times are UTC + 5



You cannot post new topics in this forum
You cannot reply to topics in this forum
You cannot edit your posts in this forum
You cannot delete your posts in this forum
You cannot vote in polls in this forum
You cannot attach files in this forum
You can download files in this forum










!ATTENTION!
The site does not give electronic versions of products, and is engaged only in a collecting and cataloguing of the references sent and published at a forum by our readers. If you are the legal owner of any submitted material and do not wish that the reference to it was in our catalogue, contact us and we shall immediately remove her. Files for an exchange on tracker are given by users of a site, and the administration does not bear the responsibility for their maintenance. The request to not fill in the files protected by copyrights, and also files of the illegal maintenance!