В поисках Рождества / Finding Christmas (2013) SATRip | P

DL-List and Torrent activity [Update ]
Size:  1.37 GB   |    Registered:  5 years 8 months   |    Completed:  28 times
Seeders:  4  [  0 KB/s  ]   Leechers:  7  [  0 KB/s  ]  
 
     
 
 
Author Message

Иваныч ®

Gender: Male

Longevity: 5 years 8 months

Posts: 8217

Наличие запрета:


Карма  175 

Location: Россия,Курган



: 19 ()

Активный релизер  (2000 релизов) (1) Активный релизер  (50 релизов) (1) Активисту (1) Активный релизер  (250 и более релизов) (1)
Активный релизер (500 релизов) (1) Активный релизер  (100 релизов) (1) За внесенный вклад в развитие сайта (1) Помощь (1)
Активный релизер  (150 релизов) (1) Активному релизеру (5000 раздач) (1) Реализация решений (1) Активный релизер  (200 релизов) (1)

Post 16-Nov-2015 05:01

[Quote]


Информация о фильме
Название: В поисках Рождества
Оригинальное название: Finding Christmas
Год выхода: 2013
Жанр: Мелодрама
Режиссер: Харви Кросслэнд
В ролях: Триша Хелфер, Дж.Т. Ходжес, Марк Лутс, Кристина Розато, Кристиан Дистефано, Британи Грэй, Джессика Риммер, Дов Микельсон, Даниэль Кайнд, Скотт Виквэа
Описание: Живущие на расстоянии тысячи километров музыкант Оуэн и рекламный агент Шон оказываются в схожей ситуации - обоих бросают возлюбленные. Чтобы отвлечься от своих проблем, мужчины решают обменяться домами в канун Рождества.

Страна: США
Продолжительность: 01:26:47
Перевод: Профессиональный (многоголосый закадровый) - Кинопоказ
Файл
Формат: AVI
Качество: SATRip
Видео: 720x400, (16:9), XviD, 2056 Кбит/сек, 25,000 кадров/сек
Аудио: AC3, 192 Кбит/сек, 2 канала, 48,0 КГц

Скриншоты:

MediaInfo:

Общее
Полное имя : J:В поисках Рождества.avi
Формат : AVI
Формат/Информация : Audio Video Interleave
Размер файла : 1,37 Гбайт
Продолжительность : 1 ч. 26 м.
Общий поток : 2258 Кбит/сек
Название фильма : В поисках Рождества / Finding Christmas (2013)
Программа кодирования : VirtualDubMod 1.5.10.2 (build 2540/release)
Библиотека кодирования : VirtualDubMod build 2540/release
Видео
Идентификатор : 0
Формат : MPEG-4 Visual
Профиль формата : Advanced Simple@L5
Параметр BVOP формата : 1
Параметр QPel формата : Нет
Параметр GMC формата : Без точки перехода
Параметр матрицы формата : Выборочная
Идентификатор кодека : XVID
Идентификатор кодека/Подсказка : XviD
Продолжительность : 1 ч. 26 м.
Битрейт : 2056 Кбит/сек
Ширина : 720 пикселей
Высота : 400 пикселей
Соотношение сторон : 16:9
Частота кадров : 25,000 кадров/сек
Цветовое пространство : YUV
Субдискретизация насыщенности : 4:2:0
Битовая глубина : 8 бит
Тип развёртки : Прогрессивная
Метод сжатия : С потерями
Бит/(Пиксели*Кадры) : 0.286
Размер потока : 1,25 Гбайт (91%)
Библиотека кодирования : XviD 65
Аудио
Идентификатор : 1
Формат : AC-3
Формат/Информация : Audio Coding 3
Расширение режима : CM (complete main)
Параметр Endianness формата : Big
Идентификатор кодека : 2000
Продолжительность : 1 ч. 26 м.
Вид битрейта : Постоянный
Битрейт : 192 Кбит/сек
Каналы : 2 канала
Расположение каналов : Front: L R
Частота : 48,0 КГц
Битовая глубина : 16 бит
Метод сжатия : С потерями
Размер потока : 119 Мбайт (9%)
Выравнивание : Разделение по промежуткам
Продолжительность промежутка : 40 мс. (1,00 видеокадр)
Время предзагрузки промежутка : 500 мс.
Заголовок : Профессиональный (многоголосый закадровый)
Сейчас вы смотрите В поисках Рождества / Finding Christmas (2013) SATRip | P,не забываем оставлять комментарии!
В поисках Рождества / Finding Christmas (2013) SATRip | P [mytorrnado.ru].t995.torrent 
Torrent: Registered [ 2015-11-16 05:01 ] · AD4DBB0A699C24889E92A42F3C82A578538DF10C Google it!

Download .torrent

14 KB

Status: checked
Completed: 28 times
Тип торрента: Публичный  - Seed: 4;  Leeh: 7    
Size: 1.37 GB
Поделиться:
FAQ:
 
Как качать?
Как качать?
X
Скачайте торрент и откройте его в своем клиенте
uTorrent

скачать программу,
дождитесь окончания загрузки.
Если торрент закрыт? Инстркуция.
* Как смотреть?
Как смотреть?
X

Для работы Magic Player
Вам необходимо установить
Ace Stream P2P Multimedia Plug-in

Установить

Для работы Magic Player Вам необходимо включить
Ace Stream P2P Multimedia Plug-in

Инструкция
terms.php
Похожие темы




Запрещено категорически:
» Развязывать разборки (для этого есть ЛС)
» Оставлять комментарии, не относящиеся к содержанию материала.
» Добавлять спам, рекламу флуд..
К спаму относится:
1. Реклама любого направления.
2. Ссылки на сторонние ресурсы рекламного характера.
3. Ссылки на ресурсы порнографического направления.
4. Сылки на блоги и им подбным контeнтам.
» Запрещено оскорбление администрации, модераторов и пользователей.
» Часто писать с вкл. Caps Lock
»За нарушение правил бан или отключение без объяснений.
Уважайте чужой труд!

Правила могут дополняться и изменяться. С уважением Администрация.
[Profile] [PM]
Display posts    
Reply to topic

Current time is: 29-Jul 17:05

All times are UTC + 5



You cannot post new topics in this forum
You cannot reply to topics in this forum
You cannot edit your posts in this forum
You cannot delete your posts in this forum
You cannot vote in polls in this forum
You cannot attach files in this forum
You can download files in this forum










!ATTENTION!
The site does not give electronic versions of products, and is engaged only in a collecting and cataloguing of the references sent and published at a forum by our readers. If you are the legal owner of any submitted material and do not wish that the reference to it was in our catalogue, contact us and we shall immediately remove her. Files for an exchange on tracker are given by users of a site, and the administration does not bear the responsibility for their maintenance. The request to not fill in the files protected by copyrights, and also files of the illegal maintenance!